2 сезон

iTunes

MVO

1

2 сезон

iTunes

iTunes

1 сезон

RePack

30

Ultimate

ВАЖНО

ИГРА 18+

pack

RePack

MK11
pack

Легкие деньги

RePack

jed

RePack

fifa19

RePack

RDR2

RePack

NEED FOR SPEED™ PAYBACK

4 сезон

9 сезон

Бесстыжие 9 сезон

Все сериалы

все сериалы на PB.wtf

RePack

FAR CRY 5

Anonymous, доброе утро, мы не успеваем собрать деньги на оплату серверов за декабрь и январь, помогите нам пожалуйста в это трудное время. В качестве благодарности мы отключим Вам всю рекламу на сайте (укажите свой ник в строку Ваше имя)!

×
  
Magnet ссылка

Плохие слова / Bad Words (Джейсон Бейтман) [2013, комедия, HDRip] DUB Лицензия pb.wtf

Плохие слова через торрент pb.wtf

Размер: 1.37 GB | Добавлен: 6 лет 3 мес. назад | Торрент скачан:1396 раз
Скачать  

05-10-2014 23:51 Плохие слова Скачать торрент  

Плохие слова / Bad Words
«The end justifies the mean»

Год выпуска: 2013
Страна: США
Жанр:комедия
Продолжительность:01:29:02
Перевод:Дубляж - [Лицензия]
Режиссер:Джейсон Бейтман

  • В ролях:

    Джейсон Бейтман (Guy Trilby), Кэтрин Хан (Jenny Widgeon), Аманда Энка (National Public Television рассказчик), Роэн Чанд (Chaitanya Chopra), Филип Бейкер Холл (Dr. Bowman), Эллисон Дженни (Dr. Bernice Deagan), Бен Фэлкоун (Pete Fowler), Стив Уиттинг (Proctor at Spelling Bee), Бет Грант (Bedazzled Judge), Gwen Parden (Brace-Faced Girl), Анжул Нигам (Sriram Chopra), Аллан Миллер (Bald Glasses Judge)

  • Описание:
    Фильм рассказывает о мужчине, который хочет попасть на соревнование по правописанию и попадает на него, найдя в регламенте конкурса лазейку...

  • Мировая премьера:6 сентября 2013

    Качество: HDRip
    Формат:AVI
    Видео кодек: XviD
    Аудио кодек:AC3
    Видео: XviD, 720x304 (2.35:1), 1804 kbps, 23,976 fps, 0,344 bpp
    Аудио: AC3 / 5.1 / 48 kHz / 384 kbps / 16 bit


    Код:

    General
    Complete name                            : D:\Торенты\Plohie.slova.2013.D.HDRip.1400Mb_.avi
    Format                                   : AVI
    Format/Info                              : Audio Video Interleave
    File size                                : 1.37 GiB
    Duration                                 : 1h 29mn
    Overall bit rate                         : 2 198 Kbps
    Writing application                      : VirtualDubMod 1.5.10.3 | www.virtualdub-fr.org || (build 2550/release)
    Writing library                          : VirtualDubMod build 2550/release

    Video
    ID                                       : 0
    Format                                   : MPEG-4 Visual
    Format profile                           : Advanced Simple@L5
    Format settings, BVOP                    : 2
    Format settings, QPel                    : No
    Format settings, GMC                     : No warppoints
    Format settings, Matrix                  : Default (MPEG)
    Codec ID                                 : XVID
    Codec ID/Hint                            : XviD
    Duration                                 : 1h 29mn
    Bit rate                                 : 1 805 Kbps
    Width                                    : 720 pixels
    Height                                   : 304 pixels
    Display aspect ratio                     : 2.35:1
    Frame rate                               : 23.976 fps
    Color space                              : YUV
    Chroma subsampling                       : 4:2:0
    Bit depth                                : 8 bits
    Scan type                                : Progressive
    Compression mode                         : Lossy
    Bits/(Pixel*Frame)                       : 0.344
    Stream size                              : 1.12 GiB (82%)
    Writing library                          : XviD 1.2.1 (UTC 2008-12-04)

    Audio
    ID                                       : 1
    Format                                   : AC-3
    Format/Info                              : Audio Coding 3
    Mode extension                           : CM (complete main)
    Codec ID                                 : 2000
    Duration                                 : 1h 29mn
    Bit rate mode                            : Constant
    Bit rate                                 : 384 Kbps
    Channel(s)                               : 6 channels
    Channel positions                        : Front: L C R, Side: L R, LFE
    Sampling rate                            : 48.0 KHz
    Bit depth                                : 16 bits
    Compression mode                         : Lossy
    Stream size                              : 245 MiB (17%)
    Alignment                                : Split accross interleaves
    Interleave, duration                     : 42 ms (1.00 video frame)
    Interleave, preload duration             : 500 ms

    Скриншоты:

    Каталог Новинок (Фильмы-трейлеры, Игры, Сериалы, Мультфильмы)


    © Оформление by Ravenpb.wtf



  • Скачать Плохие слова через торрент http://pic.kartinco.top/images/6/stazu.jpg Скачать фильм Плохие слова через торрент бесплантно в хорошем качестве Описание:Фильм рассказывает о мужчине, который хочет попасть на соревнование по правописанию и попадает на него, найдя в регламенте ... 9.4 10 35
    Торрент: Зарегистрирован [2014-10-05 23:51] · скачан: 1 396 раз
    Статус: √ проверено
    Размер: 1.37 GB
    Как cкачать? Как скачать Плохие слова через торрент | UTorrent

    28-11-2019 20:33  

    Отключить всю рекламу на сайте

    09-10-2014 20:20 Плохие слова Скачать торрент  

    Веселый, добродушный фильмец.pb.wtf



      Дорогой пользователь! Огромная просьба, поблагодарите релизера, оцените раздачу и оставьте свои комментарий, если Вы скачали Плохие слова через торрент бесплатно! Внесите свою лепту в развитие PiratBit!
      Комментировать посты могут только пользователи прошедшие не сложную регистрацию
      Показать сообщения:    

      Плохие слова через торрент
      Скачать бесплатно Плохие слова
      Плохие слова скачать торрент
      Плохие слова смотреть онлайн
      Cкачать фильм Плохие слова бесплатно
      Плохие слова скачать торрент в хорошем качестве
      Плохие слова смотреть онлайн бесплатно в хорошем качестве


      Вы не можете начинать темы
      Вы не можете отвечать на сообщения
      Вы не можете редактировать свои сообщения
      Вы не можете удалять свои сообщения
      Вы не можете голосовать в опросах
      Вы не можете прикреплять файлы к сообщениям
      Вы можете скачивать файлы