Всегда рабочее зеркало просто перед .vidak.icu напиши любое слово или цифру, Пример http://pax.vidak.icu

>

7.4

iTunes

7.4

2 сезон

9.4

1 сезон

1

7.4

2 сезон

7.2

iTunes

6.0

MVO

13

6.1

iTunes

8.3

Пиратка

30

ULTIMATE

pack

9.9

Лицензия

ВАЖНО

ИГРА 18+

pack

7.3

RePack

MK11

7.7

RePack

jed

7.8

RePack

fifa19

8.5

RePack

RDR2

RePack

NEED FOR SPEED™ PAYBACK

1 сезон

9 сезон

Бесстыжие 9 сезон

Все сериалы

все сериалы на PB.wtf

RePack

FAR CRY 5

Anonymous, доброе утро, мы катастрофически не успеваем собрать деньги на оплату серверов, помогите нам пожалуйста 5,10,15р., для нас важна любая помощь . В качестве благодарности мы отключим Вам всю рекламу на сайте (укажите свой ник в строку Ваше имя)!

×
  
Magnet ссылка

Катастрофа / Обломки прошлого / Blue Ruin (Джереми Солнье / Jeremy Saulnier) [ 2013 , США , триллер , BDRip 720p / AVO pb.wtf

Катастрофа через торрент pb.wtf

Размер: 4.21 GB | Добавлен: 7 лет 3 мес. назад | Торрент скачан:26 раз
Смотреть онлайн Катастрофа | Скачать    Ребята, помогите собрать деньги на оплату серверов!!!

06-10-2014 01:40 Катастрофа Скачать торрент  


Информация о фильме

Название: Катастрофа / Обломки прошлого

Оригинальное название: Blue Ruin

Год выхода: 2013

Страна: США / Film Science, Neighborhood Watch, Paradise City, The Lab of Madness

Продолжительность: 01:30:24

Перевод: Авторский (одноголосый, закадровый) - С. Визгунов

Жанр: Триллер

Режиссер: Джереми Солнье

В ролях: Макон Блэр, Девин Рэтрей, Эми Харгривз, Кевин Колак, Ив Пламб, Дэвид В. Томпсон, Стэйси Рок, Сидне Андерсон, Бонни Джонсон



Описание: Спокойная жизнь таинственного затворника переворачивается с ног на голову, когда он возвращается туда, где провел детство, желая отомстить. Он ввязывается в жестокую борьбу, чтобы защитить свою семью…









Файл

Качество: BDRip 720p

Формат: MKV

Видео кодек: AVC

Аудио кодек:AC3

Видео: MPEG4/AVC, 1280х536 (2.40:1), 5387 Кбит/сек, 23.976 кадра/сек

Аудио 1: АС3, 6 каналов, 640 Кбит/сек / 48 kHz| Русский

Аудио 2: АС3, 6 каналов, 640 Кбит/сек / 48 kHz| Английский

Субтитры: Русские, английские (Full, SDH)

Навигация по главам: Есть
*Перевод Сергея Визгунова выполнен спонсорами ресурса e180 и участниками сервиса от HDCLUB

*За оригинал перевода С. Визгунова спасибо
Общее

Уникальный идентификатор : 217991412608913982544205411312554915219 (0xA3FF9E714C1544CFA38028AEFCEEB593)

Полное имя : Blue Ruin. (2014) BDRip 720p.mkv

Формат : Matroska

Версия формата : Version 2

Размер файла : 4,21 Гбайт

Продолжительность : 1 ч. 30 м.

Общий поток : 6667 Кбит/сек

Название фильма : Blue Ruin. 2013

Дата кодирования : UTC 2014-08-24 15:25:33

Программа кодирования : mkvmerge v5.8.0 ('No Sleep / Pillow') built on Sep 2 2012 15:37:04

Библиотека кодирования : libebml v1.2.3 + libmatroska v1.3.0



Видео

Идентификатор : 1

Формат : AVC

Формат/Информация : Advanced Video Codec

Профиль формата : High@L4.1

Параметр CABAC формата : Да

Параметр ReFrames формата : 10 кадров

Идентификатор кодека : V_MPEG4/ISO/AVC

Продолжительность : 1 ч. 30 м.

Битрейт : 5387 Кбит/сек

Ширина : 1280 пикселей

Высота : 536 пикселей

Соотношение сторон : 2,40:1

Режим частоты кадров : Постоянный

Частота кадров : 23,976 кадра/сек

Цветовое пространство : YUV

Субдискретизация насыщенности : 4:2:0

Битовая глубина : 8 бит

Тип развёртки : Прогрессивная

Бит/(Пиксели*Кадры) : 0.327

Размер потока : 3,32 Гбайт (79%)

Заголовок : CHD

Библиотека кодирования : x264 core 138 r2358 9e941d1

Настройки программы : cabac=1 / ref=10 / deblock=1:-3:-3 / analyse=0x3:0x113 / me=umh / subme=10 / psy=1 / psy_rd=1.00:0.05 / mixed_ref=1 / me_range=32 / chroma_me=1 / trellis=2 / 8x8dct=1 / cqm=0 / deadzone=21,11 / fast_pskip=0 / chroma_qp_offset=-2 / threads=12 / lookahead_threads=1 / sliced_threads=0 / nr=0 / decimate=1 / interlaced=0 / bluray_compat=0 / constrained_intra=0 / bframes=4 / b_pyramid=2 / b_adapt=2 / b_bias=0 / direct=3 / weightb=1 / open_gop=0 / weightp=2 / keyint=250 / keyint_min=23 / scenecut=40 / intra_refresh=0 / rc=2pass / mbtree=0 / bitrate=5387 / ratetol=1.0 / qcomp=0.70 / qpmin=0 / qpmax=69 / qpstep=4 / cplxblur=20.0 / qblur=0.5 / ip_ratio=1.40 / pb_ratio=1.30 / aq=2:1.00

Язык : English

Default : Да

Forced : Нет



Аудио #1

Идентификатор : 2

Формат : AC-3

Формат/Информация : Audio Coding 3

Расширение режима : CM (complete main)

Параметр Endianness формата : Big

Идентификатор кодека : A_AC3

Продолжительность : 1 ч. 30 м.

Вид битрейта : Постоянный

Битрейт : 640 Кбит/сек

Каналы : 6 каналов

Расположение каналов : Front: L C R, Side: L R, LFE

Частота : 48,0 КГц

Битовая глубина : 16 бит

Метод сжатия : С потерями

Размер потока : 414 Мбайт (10%)

Заголовок : Rus | С.Визгунов

Язык : Russian

Default : Да

Forced : Нет



Аудио #2

Идентификатор : 3

Формат : AC-3

Формат/Информация : Audio Coding 3

Расширение режима : CM (complete main)

Параметр Endianness формата : Big

Идентификатор кодека : A_AC3

Продолжительность : 1 ч. 30 м.

Вид битрейта : Постоянный

Битрейт : 640 Кбит/сек

Каналы : 6 каналов

Расположение каналов : Front: L C R, Side: L R, LFE

Частота : 48,0 КГц

Битовая глубина : 16 бит

Метод сжатия : С потерями

Размер потока : 414 Мбайт (10%)

Заголовок : Eng

Язык : English

Default : Нет

Forced : Нет



Текст #1

Идентификатор : 4

Формат : UTF-8

Идентификатор кодека : S_TEXT/UTF8

Идентификатор кодека/Информация : UTF-8 Plain Text

Заголовок : Full | Notabenoid

Язык : Russian

Default : Нет

Forced : Нет



Текст #2

Идентификатор : 5

Формат : UTF-8

Идентификатор кодека : S_TEXT/UTF8

Идентификатор кодека/Информация : UTF-8 Plain Text

Заголовок : Full

Язык : English

Default : Нет

Forced : Нет



Текст #3

Идентификатор : 6

Формат : UTF-8

Идентификатор кодека : S_TEXT/UTF8

Идентификатор кодека/Информация : UTF-8 Plain Text

Заголовок : SDH

Язык : English

Default : Нет

Forced : Нет



Меню

00:00:00.000 : en:00:00:00.000

00:04:17.257 : en:00:04:17.257

00:09:38.369 : en:00:09:38.369

00:16:02.420 : en:00:16:02.420

00:23:38.375 : en:00:23:38.375

00:32:14.766 : en:00:32:14.766

00:40:52.533 : en:00:40:52.533

00:47:29.263 : en:00:47:29.263

00:55:07.262 : en:00:55:07.262

01:03:16.835 : en:01:03:16.835

01:08:04.372 : en:01:08:04.372

01:13:17.685 : en:01:13:17.685

01:18:36.378 : en:01:18:36.378

01:26:04.159 : en:01:26:04.159
pb.wtf



Скачать Катастрофа через торрент http://s018.radikal.ru/i525/1408/ab/aa6d23cc1769.png Скачать, смотреть онлайн Катастрофа бесплантно в хорошем качестве Описание: Спокойная жизнь таинственного затворника переворачивается с ног на голову, когда он возвращается туда, где провел детство, желая ... 8.2 10 5
Торрент: Зарегистрирован [2014-10-06 01:40] · скачан: 26 раз
Статус: √ проверено
Размер: 4.21 GB
Как cкачать? Как скачать Катастрофа через торрент | UTorrent

28-11-2019 20:33  

Отключить всю рекламу на сайте

    Дорогой пользователь! Огромная просьба, поблагодарите релизера, оцените раздачу и оставьте свои комментарий, если Вы скачали Катастрофа через торрент бесплатно!
    Комментировать посты могут только пользователи прошедшие не сложную регистрацию
    Показать сообщения:    

    Катастрофа через торрент
    Скачать бесплатно Катастрофа
    Катастрофа скачать торрент
    Катастрофа смотреть онлайн
    Cкачать фильм Катастрофа бесплатно
    Катастрофа скачать торрент в хорошем качестве
    Катастрофа смотреть онлайн бесплатно в хорошем качестве


    Вы не можете начинать темы
    Вы не можете отвечать на сообщения
    Вы не можете редактировать свои сообщения
    Вы не можете удалять свои сообщения
    Вы не можете голосовать в опросах
    Вы не можете прикреплять файлы к сообщениям
    Вы можете скачивать файлы