2 сезон

iTunes

1 сезон

1

iTunes

iTunes

iTunes

1 сезон

RePack

30

ИГРА 18+

pack

ВАЖНО

!!Акция!!

Alien_RageХит недели

RePack

MK11
pack

Забери бонус

RePack

jed

!!Акция!!

Alien_Rage

RePack

fifa19

RePack

Assassins Creed: Odyssey

RePack

NEED FOR SPEED™ PAYBACK

4 сезон

9 сезон

Бесстыжие 9 сезон

Все сериалы

все сериалы на PB.wtf

RePack

FAR CRY 5
  

13-й район: Кирпичные особняки / Brick Mansions (Камиль Деламарр ) [2014, боевик, криминал, BDRip 1080p] DUB / Лицензия pb.wtf

13-й район: Кирпичные особняки через торрент pb.wtf

Размер: 7.75 GB | Добавлен: 6 лет назад | Торрент скачан:257 раз
Скачать  

06-10-2014 08:12 13-й район: Кирпичные особняки Скачать торрент  

Информация о фильме

Русское название: 13-й район: Кирпичные особняки
Оригинальное название: Brick Mansions
Год выхода: 2014
Жанр: боевик, криминал
Режиссер: Камиль Деламарр
Выпущено: Франция, Канада
Продолжительность: 01:30:10
Перевод: Дублированный - Лицензия
В ролях: Пол Уокер, Давид Белль, RZA, Гучи Бой, Каталина Денис, Аиша Исса, Карло Рота, Андреас Апергис, Ричард Земан, Роберт Мэйллет...


Сюжет фильма

История детектива под прикрытием, ищущего оружие массового уничтожения, похищенное наркодилером гетто Кирпичные дома. Детектив обращается за помощью к знатоку района Лино, единственному человеку, который не боится бандитов.


Файл

Качество: BDRip 1080p
Формат: AVC (библиотека кодирования x.264)
Контейнер (Расширение): MKV
Видео кодек: AVC
Аудио кодек:AC3
Видео: 1920x804, 11234 Кбит/сек, 24,000 кадр/сек, AVC, x264, High@L4.1, 2.40:1, 0.303 Бит/[Пиксели*Кадры]
Аудио 1: AC-3, 448 Кбит/сек, 6 канала(ов), 48,0 КГц - Дублированный / Русский
Аудио 2: AC-3, 640 Кбит/сек, 6 канала(ов), 48,0 КГц - Оригинал / Английский
Субтитры: Английские | Полные
Навигация по главам: Есть









Автор Рипа: Сообщество:


скриншот   скриншот   скриншот  

Код:

x264 [info]: frame I:1857  Avg QP:15.03  size:209985
x264 [info]: frame P:43095 Avg QP:17.41  size: 85261
x264 [info]: frame B:84889 Avg QP:19.02  size: 41446

Код:

Format                                   : Matroska
Format version                           : Version 2
File size                                : 7.75 GiB
Duration                                 : 1h 30mn
Overall bit rate                         : 12.3 Mbps
Movie name                               : 13-й район: Кирпичные особняки.(2014).BDRip.1080p.[envy]
Encoded date                             : UTC 2014-10-05 17:35:03
Writing application                      : mkvmerge v5.8.0 ('No Sleep / Pillow') built on Sep  2 2012 15:37:04
Writing library                          : libebml v1.2.3 + libmatroska v1.3.0

Video
ID                                       : 1
Format                                   : AVC
Format/Info                              : Advanced Video Codec
Format profile                           : High@L4.1
Format settings, CABAC                   : Yes
Format settings, ReFrames                : 5 frames
Codec ID                                 : V_MPEG4/ISO/AVC
Duration                                 : 1h 30mn
Bit rate                                 : 11.2 Mbps
Width                                    : 1 920 pixels
Height                                   : 804 pixels
Display aspect ratio                     : 2.40:1
Frame rate mode                          : Constant
Frame rate                               : 24.000 fps
Color space                              : YUV
Chroma subsampling                       : 4:2:0
Bit depth                                : 8 bits
Scan type                                : Progressive
Bits/(Pixel*Frame)                       : 0.303
Stream size                              : 6.91 GiB (89%)
Title                                    : 13-й район: Кирпичные особняки.(2014).BDRip.1080p.[envy]
Writing library                          : x264 core 142 r2479 dd79a61
Encoding settings                        : cabac=1 / ref=5 / deblock=1:-3:-3 / analyse=0x3:0x113 / me=umh / subme=11 / psy=1 / psy_rd=1.00:0.00 / mixed_ref=1 / me_range=32 / chroma_me=1 / trellis=2 / 8x8dct=1 / cqm=0 / deadzone=21,11 / fast_pskip=0 / chroma_qp_offset=-2 / threads=12 / lookahead_threads=1 / sliced_threads=0 / nr=0 / decimate=1 / interlaced=0 / bluray_compat=0 / constrained_intra=0 / bframes=5 / b_pyramid=2 / b_adapt=2 / b_bias=0 / direct=3 / weightb=1 / open_gop=0 / weightp=2 / keyint=240 / keyint_min=24 / scenecut=40 / intra_refresh=0 / rc=2pass / mbtree=0 / bitrate=11234 / ratetol=2.0 / qcomp=0.60 / qpmin=0 / qpmax=69 / qpstep=4 / cplxblur=20.0 / qblur=0.5 / ip_ratio=1.40 / pb_ratio=1.30 / aq=2:1.00
Language                                 : English
Default                                  : Yes
Forced                                   : No

Audio #1
ID                                       : 2
Format                                   : AC-3
Format/Info                              : Audio Coding 3
Mode extension                           : CM (complete main)
Format settings, Endianness              : Big
Codec ID                                 : A_AC3
Duration                                 : 1h 30mn
Bit rate mode                            : Constant
Bit rate                                 : 448 Kbps
Channel(s)                               : 6 channels
Channel positions                        : Front: L C R, Side: L R, LFE
Sampling rate                            : 48.0 KHz
Bit depth                                : 16 bits
Compression mode                         : Lossy
Stream size                              : 289 MiB (4%)
Title                                    : Dub
Language                                 : Russian
Default                                  : Yes
Forced                                   : No

Audio #2
ID                                       : 3
Format                                   : AC-3
Format/Info                              : Audio Coding 3
Mode extension                           : CM (complete main)
Format settings, Endianness              : Big
Codec ID                                 : A_AC3
Duration                                 : 1h 30mn
Bit rate mode                            : Constant
Bit rate                                 : 640 Kbps
Channel(s)                               : 6 channels
Channel positions                        : Front: L C R, Side: L R, LFE
Sampling rate                            : 48.0 KHz
Bit depth                                : 16 bits
Compression mode                         : Lossy
Stream size                              : 413 MiB (5%)
Title                                    : Eng
Language                                 : English
Default                                  : No
Forced                                   : No

Text
ID                                       : 4
Format                                   : UTF-8
Codec ID                                 : S_TEXT/UTF8
Codec ID/Info                            : UTF-8 Plain Text
Title                                    : full
Language                                 : English
Default                                  : No
Forced                                   : No

Menu
00:00:00.000                             : en:00:00:00.000
00:08:32.042                             : en:00:08:32.042
00:20:00.667                             : en:00:20:00.667
00:28:50.125                             : en:00:28:50.125
00:35:13.750                             : en:00:35:13.750
00:46:39.500                             : en:00:46:39.500
00:57:56.792                             : en:00:57:56.792
01:09:39.083                             : en:01:09:39.083
01:18:16.708                             : en:01:18:16.708
01:25:14.125                             : en:01:25:14.125



pb.wtf



Скачать 13-й район: Кирпичные особняки через торрент http://4.firepic.org/4/images/2014-10/06/4nupkaxuvqae.png Скачать фильм 13-й район: Кирпичные особняки через торрент бесплантно в хорошем качестве В ролях: Пол Уокер, Давид Белль, RZA, Гучи Бой, Каталина Денис, Аиша Исса, Карло Рота, Андреас Апергис, Ричард Земан, Роберт ... 10 10 3
Info! Золотая раздача, скачанное не засчитывается.
Торрент: Зарегистрирован [2014-10-06 08:12] · скачан: 257 раз
Статус: √ проверено
Размер: 7.75 GB
Как cкачать? Как скачать 13-й район: Кирпичные особняки через торрент | qTorrent

% Раздел Тема Автор DL S | L
Фильмы 2014 [DVDrip, WEB-DLRip, HDrip] [ 1.46 GB ] 13-й район: Кирпичные особняки / Brick Mansions [2014 BDRip-AVC] DUB potroks Скачать
1 | 0
Фильмы [HD 720p, 1080p] (Хороший звук DUB, MVO) [ 10.03 GB ] 13-й район: Кирпичные особняки / Brick Mansions [2014 BDRip 1080p DUB ] от R.G. HD-Films Seedtank Скачать
1 | 0


Последний раз редактировалось: еnvy (2014-10-06 19:22), всего редактировалось 1 раз

28-11-2019 20:33  

Отключить всю рекламу на сайте

06-10-2014 13:15 13-й район: Кирпичные особняки Скачать торрент  

Дицензия...это лучше лизензии???pb.wtf



06-10-2014 19:22 13-й район: Кирпичные особняки Скачать торрент  

pirat6999 писал(а):

Дицензия...это лучше лизензии???

sarcastic Исправил )))pb.wtf



    Дорогой пользователь! Огромная просьба, поблагодарите релизера, оцените раздачу и оставьте свои комментарий, если Вы скачали 13-й район: Кирпичные особняки через торрент бесплатно! Внесите свою лепту в развитие PiratBit!
    Комментировать посты могут только пользователи прошедшие не сложную регистрацию
    Показать сообщения:    

    13-й район: Кирпичные особняки через торрент
    Скачать бесплатно 13-й район: Кирпичные особняки
    13-й район: Кирпичные особняки скачать торрент
    13-й район: Кирпичные особняки смотреть онлайн
    Cкачать фильм 13-й район: Кирпичные особняки бесплатно
    13-й район: Кирпичные особняки скачать торрент в хорошем качестве
    13-й район: Кирпичные особняки смотреть онлайн бесплатно в хорошем качестве


    Вы не можете начинать темы
    Вы не можете отвечать на сообщения
    Вы не можете редактировать свои сообщения
    Вы не можете удалять свои сообщения
    Вы не можете голосовать в опросах
    Вы не можете прикреплять файлы к сообщениям
    Вы можете скачивать файлы