Доктор Стрэндж

Лицензия

Добыча

MVO

Дом дракона

1 сезон

Тор

Лицензия

Мэверик

Лицензия

Там, где раки поют

MVO

Властелин колец

1 сезон

Ultimate

pack

Рекомендуем

30

Repack

ВАЖНО

ВАЖНО

Ghostwire

RePack

jed

RePack

nioh2

RePack

RDR2

RePack

NEED FOR SPEED™ PAYBACK

RePack

скачать торрент

Кинопоиск HD

Острые козырьки 6 сезон

6 сезон

FAR CRY 6

RePack

скачать торрент

Лицензия

скачать торрент

MVO

1

1 сезон

скачать торрент

1 сезон

скачать торрент

Лицензия

  

Последний рубеж / Homefront (Гэри Фледер / Gary Fleder) [2013, боевик, криминал, DVD9] R5

Последний рубеж через торрент pb.wtf

Размер: 5.22 GB | Добавлен: 7 лет 11 мес. назад | Торрент скачан:50 раз
Смотреть онлайн Последний рубеж | Скачать   

06-10-2014 08:18 Последний рубеж Скачать торрент  


Последний рубеж / Homefront
«На что ты готов ради защиты своей семьи?»
Страна: США
Студия: Endgame Entertainment, Homefront Productions, Millennium Films, Mojo Films, Nu-Image Films, Open Road Films (II)
Жанр: боевик, криминал
Год выпуска: 2013
Мировая премьера: 27 ноября 2013
Российская премьера: 28 ноября 2013
Дата выхода DVD: 7 октября 2014
Дата выхода Blu-Ray: 7 октября 2014
Продолжительность: 01:36:01
Перевод: Профессиональный (дублированный) [Лицензия]
Cубтитры: нет
Оригинальная аудиодорожка: нет
Режиссер: Гэри Фледер / Gary Fleder
В ролях: Джейсон Стэйтем, Джеймс Франко, Изабела Видович, Вайнона Райдер, Кейт Босворт, Клэнси Браун, Рашель Лефевр, Омар Бенсон Миллер, Маркус Хестер, Фрэнк Грилло
Описание: Фил Брокер — бывший агент из отдела борьбы с наркотиками. Фил переезжает в небольшой город вместе с семьей в надежде забыть прошлое. Но он узнает, что город только со стороны кажется тихим и спокойным местом, на самом деле он кишит насилием, наркотиками, а всем этим заправляет злодей по кличке Аллигатор…
Бонусы: нет

Релиз группы:
Качество: DVD9 R5
Формат: DVD-Video
Видео кодек: MPEG2
Аудио кодек: AC3 + DTS
Видео: PAL 16:9 (720x576(0.658)) MPEG Video, 25,000 кадр/сек, 6820 Кбит/сек
Аудио #1: Russian (Dolby AC3, 6 ch) 448 Кбит/сек, 48,0 КГц
Аудио #2: Russian (DTS, 5 ch) 768 Кбит/сек, 48,0 КГц



Title: Poslednij.rubezh.2013.DVD9
Size: 5.22 Gb ( 5 477 102,00 KBytes ) - DVD-9
Enabled regions: 1, 2, 3, 4, 5, 6, 7, 8

VTS_01 :
Play Length: 00:00:25+{00:00:25}+{00:00:25}
Video: PAL 4:3 (720x576) VBR
Audio:
Russian (Dolby AC3, 6 ch)
English (Dolby AC3, 6 ch)
English (Dolby AC3, 6 ch)

VTS_02 :
Play Length: 01:36:01
Video: PAL 16:9 (720x576) VBR, Auto Pan&Scan, Auto Letterboxed
Audio:
Russian (Dolby AC3, 6 ch)
Russian (DTS, 5 ch)

* Menus Information *

VIDEO_TS Menu
Video:
PAL 16:9 (720x576) VBR
Auto Pan&Scan, Auto Letterboxed
English Language Unit :
Title Menu

VTS_01 Menu
Video:
PAL 16:9 (720x576) VBR
Auto Letterboxed
Audio:
Not specified (Dolby AC3, 2 ch)
English Language Unit :
Root Menu
Chapter (PTT) Menu

VTS_02 Menu
Video:
PAL 4:3 (720x576) VBR
English Language Unit :
Root Menu
Audio Menu
Chapter (PTT) Menu
Общее
Полное имя : F:\Новинки 2014\Poslednij.rubezh.2013.DVD9\VIDEO_TS\VTS_02_1.VOB
Формат : MPEG-PS
Размер файла : 1024 Мбайт
Продолжительность : 17 м.
Режим общего битрейта : Переменный
Общий поток : 8186 Кбит/сек

Видео
Идентификатор : 224 (0xE0)
Формат : MPEG Video
Версия формата : Version 2
Профиль формата : [email protected]
Параметр BVOP формата : Да
Параметр матрицы формата : Выборочная
Параметр GOP формата : Variable
Продолжительность : 17 м.
Вид битрейта : Переменный
Битрейт : 6820 Кбит/сек
Максимальный битрейт : 8000 Кбит/сек
Ширина : 720 пикселей
Высота : 576 пикселей
Соотношение сторон : 16:9
Частота кадров : 25,000 кадров/сек
Стандарт вещания : PAL
Цветовое пространство : YUV
Субдискретизация насыщенности : 4:2:0
Битовая глубина : 8 бит
Тип развёртки : Прогрессивная
Метод сжатия : С потерями
Бит/(Пиксели*Кадры) : 0.658
Временной код первого кадра : 00:00:00:00
Оригинал временного кода : Group of pictures header
Размер потока : 853 Мбайт (83%)

Аудио #1
Идентификатор : 189 (0xBD)-128 (0x80)
Формат : AC-3
Формат/Информация : Audio Coding 3
Расширение режима : CM (complete main)
Параметр Endianness формата : Big
Режим смешивания : DVD-Video
Продолжительность : 17 м.
Вид битрейта : Постоянный
Битрейт : 448 Кбит/сек
Каналы : 6 каналов
Расположение каналов : Front: L C R, Side: L R, LFE
Частота : 48,0 КГц
Битовая глубина : 16 бит
Метод сжатия : С потерями
Размер потока : 56,0 Мбайт (5%)

Аудио #2
Идентификатор : 189 (0xBD)-137 (0x89)
Формат : DTS
Формат/Информация : Digital Theater Systems
Режим : 16
Параметр Endianness формата : Big
Режим смешивания : DVD-Video
Продолжительность : 17 м.
Вид битрейта : Постоянный
Битрейт : 755 Кбит/сек
Каналы : 6 каналов
Расположение каналов : Front: L C R, Side: L R, LFE
Частота : 48,0 КГц
Битовая глубина : 24 бит
Метод сжатия : С потерями
Размер потока : 94,4 Мбайт (9%)













Скачать Последний рубеж через торрент http://i63.fastpic.ru/big/2014/1006/c1/747bdd94ce2a6bfdc596744de33ca4c1.png Скачать, смотреть онлайн Последний рубеж бесплантно в хорошем качестве Описание: Фил Брокер — бывший агент из отдела борьбы с наркотиками. Фил переезжает в небольшой город вместе с семьей в надежде забыть ... 10 10 3
Info! Золотая раздача, скачанное не засчитывается.
Торрент: Зарегистрирован [2014-10-06 08:18] · скачан: 50 раз
Статус: √ проверено
Размер: 5.22 GB
Как cкачать? Как скачать Последний рубеж через торрент | UTorrent

28-11-2019 20:33  

Отключить вcю реклaмy на сайте

    Дорогой пользователь! Огромная просьба, поблагодарите релизера, оцените раздачу и оставьте свои комментарий, если Вы скачали Последний рубеж через торрент бесплатно!!
    Комментировать посты могут только пользователи прошедшие не сложную регистрацию
    Показать сообщения:    


    Последний рубеж через торрент
    Скачать бесплатно Последний рубеж
    Последний рубеж скачать торрент
    Последний рубеж смотреть онлайн
    Cкачать фильм Последний рубеж бесплатно
    Последний рубеж скачать торрент в хорошем качестве
    Последний рубеж смотреть онлайн бесплатно в хорошем качестве
    Вы не можете начинать темы
    Вы не можете отвечать на сообщения
    Вы не можете редактировать свои сообщения
    Вы не можете удалять свои сообщения
    Вы не можете голосовать в опросах
    Вы не можете прикреплять файлы к сообщениям
    Вы можете скачивать файлы