Ссылка на приватное зеркало нашего сайта всего за 1$. Внимание количество ограничено!!!

2 сезон

iTunes

1 сезон

1

iTunes

iTunes

iTunes

1 сезон

RePack

30

ИГРА 18+

pack

ВАЖНО

!!Акция!!

Alien_RageХит недели

RePack

MK11
pack

Забери бонус

RePack

jed

!!Акция!!

Alien_Rage

RePack

fifa19

RePack

Assassins Creed: Odyssey

RePack

NEED FOR SPEED™ PAYBACK

4 сезон

9 сезон

Бесстыжие 9 сезон

Все сериалы

все сериалы на PB.wtf

RePack

FAR CRY 5
  

Кладбище домашних животных / Pet Sematary (Мэри Ламберт) [1989, ужасы, BDRip 720p] MVO, DVO, AVO, VO pb.wtf

Кладбище домашних животных через торрент pb.wtf

Качают: 1 [ 0 KB/s ]
Размер: 12.85 GB | Добавлен: 6 лет назад | Торрент скачан:36 раз
Скачать  

06-10-2014 08:47 Кладбище домашних животных Скачать торрент  

Кладбище домашних животных / Pet Sematary

Год выпуска: 1989
Страна: США
Жанр: ужасы
Продолжительность: 01:42:45
Перевод: Профессиональный многоголосый, профессиональный двухголосый, авторский, одноголосый закадровый
Субтитры: русские, английские (все отдельно)

Режиссёр: Мэри Ламберт

В ролях: Дэйл Мидкифф, Фред Гуинн, Дениз Кросби, Брэд Гринквист, Мико Хьюз, Майкл Ломбард, Блэйз Бердаль

Описание: Доктор Луис Крид переезжает в маленький городок, где его семью ждет большой дом, а самого Луиса скромная должность лечащего врача местного колледжа. Новая, просторная обитель четы Кридов расположена на краю густого, величественного леса. А в самом лесу маленькое и мрачное кладбище, где местные жители хоронят своих домашних животных. Несчастье приходит и в дом Кридов: кот Черч, домашний любимец, по нелепой случайности, попадает под колёса грузовика. Гибель Черча повергает семью доктора в шок, и Луис решается на отчаянный шаг. Он хоронит кота на древнем, заброшенном индейском кладбище, обладающем, по легенде, таинственной воскрешающей силой. И однажды ночью погибший кот возвращается к хозяевам…



Качество: BDRip 720p Сравнение с исходником
Формат: MKV
Видео кодек: H.264
Аудио кодек: AC3, DTS
Видео: 1280х720, 7285 kbps, 23.976 кадра/с, 0.330 bpp
Аудио 1: русский, AC3, 384 kbps, 6 ch, 48 kHz [профессиональный многоголосый]
Аудио 2: русский, AC3, 448 kbps, 6 ch, 48 kHz [профессиональный двухголосый, Пётр Гланц и Инна Королёва]
Аудио 3: русский, AC3, 448 kbps, 6 ch, 48 kHz [авторский, Василий Горчаков]
Аудио 4: русский, AC3, 448 kbps, 6 ch, 48 kHz [авторский, Алексей Михалёв]
Аудио 5: русский, AC3, 448 kbps, 6 ch, 48 kHz [авторский, Юрий Сербин]

Отдельные файлы
Аудио: русский, AC3, 384 kbps, 6 ch, 48 kHz [профессиональный многоголосый, Киномания]
Аудио: русский, AC3, 384 kbps, 6 ch, 48 kHz [профессиональный двухголосый, R5]
Аудио: русский, DTS, 1509 kbps, 6 ch, 48 kHz [профессиональный двухголосый, Пётр Гланц и Инна Королёва]
Аудио: русский, AC3, 192 kbps, 2 ch, 48 kHz [профессиональный двухголосый, Премьер видео]
Аудио: русский, DTS, 1509 kbps, 6 ch, 48 kHz [авторский, Василий Горчаков]
Аудио: русский, AC3, 192 kbps, 2 ch, 48 kHz [авторский, Вартан Дохалов]
Аудио: русский, DTS, 1509 kbps, 6 ch, 48 kHz [авторский, Алексей Михалёв]
Аудио: русский, DTS, 1509 kbps, 6 ch, 48 kHz [авторский, Юрий Сербин]
Аудио: русский, AC3, 192 kbps, 2 ch, 48 kHz [одноголосый закадровый, вариант 1]
Аудио: русский, AC3, 192 kbps, 2 ch, 48 kHz [одноголосый закадровый, вариант 2]
Аудио: английский, AC3, 448 kbps, 6 ch, 48 kHz [оригинал]
Аудио: английский, AC3, 224 kbps, 2 ch, 48 kHz [комментарий режиссёра]

Имеются неименованные главы/чаптеры.

Автор рипа msltel
Сатурн, 1991 год
Номинации (1):
Лучший фильм ужасов

Золотая малина, 1990 год
Номинации (1):
Худшая песня — «(I Don't Wanna Be Buried in A) Pet Sematary»
frame I:1037 Avg QP:18.86 size:127744
frame P:27322 Avg QP:19.59 size: 64840
frame B:119461 Avg QP:21.67 size: 32280

Общее
Полное имя : D:VideoKladbishe domashnih givotnyh.1989.BDRip.720pKladbishe domashnih givotnyh.1989.AVO.rus.А.Михалёв.dts
Формат : DTS
Формат/Информация : Digital Theater Systems
Размер файла : 1,08 Гбайт
Продолжительность : 1 ч. 42 м.
Режим общего битрейта : Постоянный
Общий поток : 1509 Кбит/сек

Аудио
Формат : DTS
Формат/Информация : Digital Theater Systems
Режим : 16
Параметр Endianness формата : Big
Продолжительность : 1 ч. 42 м.
Вид битрейта : Постоянный
Битрейт : 1509 Кбит/сек
Каналы : 6 каналов
Расположение каналов : Front: L C R, Side: L R, LFE
Частота : 48,0 КГц
Битовая глубина : 24 бит
Метод сжатия : С потерями
Размер потока : 1,08 Гбайт (100%)

Общее
Полное имя : D:VideoKladbishe domashnih givotnyh.1989.BDRip.720pKladbishe domashnih givotnyh.1989.AVO.rus.В.Горчаков.dts
Формат : DTS
Формат/Информация : Digital Theater Systems
Размер файла : 1,08 Гбайт
Продолжительность : 1 ч. 42 м.
Режим общего битрейта : Постоянный
Общий поток : 1509 Кбит/сек

Аудио
Формат : DTS
Формат/Информация : Digital Theater Systems
Режим : 16
Параметр Endianness формата : Big
Продолжительность : 1 ч. 42 м.
Вид битрейта : Постоянный
Битрейт : 1509 Кбит/сек
Каналы : 6 каналов
Расположение каналов : Front: L C R, Side: L R, LFE
Частота : 48,0 КГц
Битовая глубина : 24 бит
Метод сжатия : С потерями
Размер потока : 1,08 Гбайт (100%)

Общее
Полное имя : D:VideoKladbishe domashnih givotnyh.1989.BDRip.720pKladbishe domashnih givotnyh.1989.AVO.rus.В.Дохалов.ac3
Формат : AC-3
Формат/Информация : Audio Coding 3
Размер файла : 141 Мбайт
Продолжительность : 1 ч. 42 м.
Режим общего битрейта : Постоянный
Общий поток : 192 Кбит/сек

Аудио
Формат : AC-3
Формат/Информация : Audio Coding 3
Расширение режима : CM (complete main)
Параметр Endianness формата : Big
Продолжительность : 1 ч. 42 м.
Вид битрейта : Постоянный
Битрейт : 192 Кбит/сек
Каналы : 2 канала
Расположение каналов : Front: L R
Частота : 48,0 КГц
Битовая глубина : 16 бит
Метод сжатия : С потерями
Размер потока : 141 Мбайт (100%)

Общее
Полное имя : D:VideoKladbishe domashnih givotnyh.1989.BDRip.720pKladbishe domashnih givotnyh.1989.AVO.rus.Ю.Сербин.dts
Формат : DTS
Формат/Информация : Digital Theater Systems
Размер файла : 1,08 Гбайт
Продолжительность : 1 ч. 42 м.
Режим общего битрейта : Постоянный
Общий поток : 1509 Кбит/сек

Аудио
Формат : DTS
Формат/Информация : Digital Theater Systems
Режим : 16
Параметр Endianness формата : Big
Продолжительность : 1 ч. 42 м.
Вид битрейта : Постоянный
Битрейт : 1509 Кбит/сек
Каналы : 6 каналов
Расположение каналов : Front: L C R, Side: L R, LFE
Частота : 48,0 КГц
Битовая глубина : 24 бит
Метод сжатия : С потерями
Размер потока : 1,08 Гбайт (100%)

Общее
Уникальный идентификатор : 207752081267009723165586569519135922445 (0x9C4B986E3CCB7D19886AB7CC327F190D)
Полное имя : D:VideoKladbishe domashnih givotnyh.1989.BDRip.720pKladbishe domashnih givotnyh.1989.BDRip.720p.mkv
Формат : Matroska
Версия формата : Version 4 / Version 2
Размер файла : 6,93 Гбайт
Продолжительность : 1 ч. 42 м.
Общий поток : 9653 Кбит/сек
Дата кодирования : UTC 2014-10-05 17:06:13
Программа кодирования : mkvmerge v6.9.1 ('Blue Panther') 64bit built on Apr 18 2014 18:23:38
Библиотека кодирования : libebml v1.3.0 + libmatroska v1.4.1

Видео
Идентификатор : 1
Формат : AVC
Формат/Информация : Advanced Video Codec
Профиль формата : High@L4.1
Параметр CABAC формата : Да
Параметр ReFrames формата : 9 кадров
Идентификатор кодека : V_MPEG4/ISO/AVC
Продолжительность : 1 ч. 42 м.
Битрейт : 7285 Кбит/сек
Ширина : 1280 пикселей
Высота : 720 пикселей
Соотношение сторон : 16:9
Режим частоты кадров : Постоянный
Частота кадров : 23,976 кадра/сек
Цветовое пространство : YUV
Субдискретизация насыщенности : 4:2:0
Битовая глубина : 8 бит
Тип развёртки : Прогрессивная
Бит/(Пиксели*Кадры) : 0.330
Размер потока : 5,23 Гбайт (75%)
Заголовок : BDRip -- STarankov
Библиотека кодирования : x264 core 142 r2431 ac76440
Настройки программы : cabac=1 / ref=9 / deblock=1:-1:-1 / analyse=0x3:0x113 / me=umh / subme=10 / psy=1 / psy_rd=1.00:0.15 / mixed_ref=1 / me_range=32 / chroma_me=1 / trellis=2 / 8x8dct=1 / cqm=0 / deadzone=21,11 / fast_pskip=1 / chroma_qp_offset=-3 / threads=6 / lookahead_threads=1 / sliced_threads=0 / nr=0 / decimate=1 / interlaced=0 / bluray_compat=0 / constrained_intra=0 / bframes=8 / b_pyramid=2 / b_adapt=2 / b_bias=0 / direct=3 / weightb=1 / open_gop=0 / weightp=2 / keyint=230 / keyint_min=23 / scenecut=40 / intra_refresh=0 / rc_lookahead=40 / rc=crf / mbtree=0 / crf=19.0 / qcomp=0.60 / qpmin=0 / qpmax=69 / qpstep=4 / vbv_maxrate=40000 / vbv_bufsize=50000 / crf_max=0.0 / nal_hrd=none / filler=0 / ip_ratio=1.40 / pb_ratio=1.30 / aq=1:1.00
Язык : English
Default : Да
Forced : Нет

Аудио #1
Идентификатор : 2
Формат : AC-3
Формат/Информация : Audio Coding 3
Расширение режима : CM (complete main)
Параметр Endianness формата : Big
Идентификатор кодека : A_AC3
Продолжительность : 1 ч. 42 м.
Вид битрейта : Постоянный
Битрейт : 384 Кбит/сек
Каналы : 6 каналов
Расположение каналов : Front: L C R, Side: L R, LFE
Частота : 48,0 КГц
Битовая глубина : 16 бит
Метод сжатия : С потерями
Размер потока : 282 Мбайт (4%)
Заголовок : MVO
Язык : Russian
Default : Да
Forced : Нет

Аудио #2
Идентификатор : 3
Формат : AC-3
Формат/Информация : Audio Coding 3
Расширение режима : CM (complete main)
Параметр Endianness формата : Big
Идентификатор кодека : A_AC3
Продолжительность : 1 ч. 42 м.
Вид битрейта : Постоянный
Битрейт : 448 Кбит/сек
Каналы : 6 каналов
Расположение каналов : Front: L C R, Side: L R, LFE
Частота : 48,0 КГц
Битовая глубина : 16 бит
Метод сжатия : С потерями
Размер потока : 329 Мбайт (5%)
Заголовок : DVO (Пётр Гланц и Инна Королёва)
Язык : Russian
Default : Нет
Forced : Нет

Аудио #3
Идентификатор : 4
Формат : AC-3
Формат/Информация : Audio Coding 3
Расширение режима : CM (complete main)
Параметр Endianness формата : Big
Идентификатор кодека : A_AC3
Продолжительность : 1 ч. 42 м.
Вид битрейта : Постоянный
Битрейт : 448 Кбит/сек
Каналы : 6 каналов
Расположение каналов : Front: L C R, Side: L R, LFE
Частота : 48,0 КГц
Битовая глубина : 16 бит
Метод сжатия : С потерями
Размер потока : 329 Мбайт (5%)
Заголовок : AVO (Василий Горчаков)
Язык : Russian
Default : Нет
Forced : Нет

Аудио #4
Идентификатор : 5
Формат : AC-3
Формат/Информация : Audio Coding 3
Расширение режима : CM (complete main)
Параметр Endianness формата : Big
Идентификатор кодека : A_AC3
Продолжительность : 1 ч. 42 м.
Вид битрейта : Постоянный
Битрейт : 448 Кбит/сек
Каналы : 6 каналов
Расположение каналов : Front: L C R, Side: L R, LFE
Частота : 48,0 КГц
Битовая глубина : 16 бит
Метод сжатия : С потерями
Размер потока : 329 Мбайт (5%)
Заголовок : AVO (Алексей Михалёв)
Язык : Russian
Default : Нет
Forced : Нет

Аудио #5
Идентификатор : 6
Формат : AC-3
Формат/Информация : Audio Coding 3
Расширение режима : CM (complete main)
Параметр Endianness формата : Big
Идентификатор кодека : A_AC3
Продолжительность : 1 ч. 42 м.
Вид битрейта : Постоянный
Битрейт : 448 Кбит/сек
Каналы : 6 каналов
Расположение каналов : Front: L C R, Side: L R, LFE
Частота : 48,0 КГц
Битовая глубина : 16 бит
Метод сжатия : С потерями
Размер потока : 329 Мбайт (5%)
Заголовок : AVO (Юрий Сербин)
Язык : Russian
Default : Нет
Forced : Нет

Меню
00:00:00.000 : :Chapter 01
00:03:04.183 : :Chapter 02
00:09:57.887 : :Chapter 03
00:17:25.127 : :Chapter 04
00:25:07.255 : :Chapter 05
00:33:45.940 : :Chapter 06
00:40:50.531 : :Chapter 07
00:44:18.697 : :Chapter 08
00:47:38.522 : :Chapter 09
00:53:32.542 : :Chapter 10
01:00:08.938 : :Chapter 11
01:09:11.939 : :Chapter 12
01:16:45.100 : :Chapter 13
01:21:37.975 : :Chapter 14
01:26:33.062 : :Chapter 15
01:28:28.469 : :Chapter 16
01:30:20.247 : :Chapter 17
01:35:37.898 : :Chapter 18
01:39:35.594 : :Chapter 19

Общее
Полное имя : D:VideoKladbishe domashnih givotnyh.1989.BDRip.720pKladbishe domashnih givotnyh.1989.CommDir.eng.ac3
Формат : AC-3
Формат/Информация : Audio Coding 3
Размер файла : 165 Мбайт
Продолжительность : 1 ч. 42 м.
Режим общего битрейта : Постоянный
Общий поток : 224 Кбит/сек

Аудио
Формат : AC-3
Формат/Информация : Audio Coding 3
Расширение режима : CM (complete main)
Параметр Endianness формата : Big
Продолжительность : 1 ч. 42 м.
Вид битрейта : Постоянный
Битрейт : 224 Кбит/сек
Каналы : 2 канала
Расположение каналов : Front: L R
Частота : 48,0 КГц
Битовая глубина : 16 бит
Метод сжатия : С потерями
Размер потока : 165 Мбайт (100%)

Общее
Полное имя : D:VideoKladbishe domashnih givotnyh.1989.BDRip.720pKladbishe domashnih givotnyh.1989.DVO.rus.R5.ac3
Формат : AC-3
Формат/Информация : Audio Coding 3
Размер файла : 282 Мбайт
Продолжительность : 1 ч. 42 м.
Режим общего битрейта : Постоянный
Общий поток : 384 Кбит/сек

Аудио
Формат : AC-3
Формат/Информация : Audio Coding 3
Расширение режима : CM (complete main)
Параметр Endianness формата : Big
Продолжительность : 1 ч. 42 м.
Вид битрейта : Постоянный
Битрейт : 384 Кбит/сек
Каналы : 6 каналов
Расположение каналов : Front: L C R, Side: L R, LFE
Частота : 48,0 КГц
Битовая глубина : 16 бит
Метод сжатия : С потерями
Размер потока : 282 Мбайт (100%)

Общее
Полное имя : D:VideoKladbishe domashnih givotnyh.1989.BDRip.720pKladbishe domashnih givotnyh.1989.DVO.rus.Гланц.dts
Формат : DTS
Формат/Информация : Digital Theater Systems
Размер файла : 1,08 Гбайт
Продолжительность : 1 ч. 42 м.
Режим общего битрейта : Постоянный
Общий поток : 1509 Кбит/сек

Аудио
Формат : DTS
Формат/Информация : Digital Theater Systems
Режим : 16
Параметр Endianness формата : Big
Продолжительность : 1 ч. 42 м.
Вид битрейта : Постоянный
Битрейт : 1509 Кбит/сек
Каналы : 6 каналов
Расположение каналов : Front: L C R, Side: L R, LFE
Частота : 48,0 КГц
Битовая глубина : 24 бит
Метод сжатия : С потерями
Размер потока : 1,08 Гбайт (100%)

Общее
Полное имя : D:VideoKladbishe domashnih givotnyh.1989.BDRip.720pKladbishe domashnih givotnyh.1989.DVO.rus.Премьер видео.ac3
Формат : AC-3
Формат/Информация : Audio Coding 3
Размер файла : 141 Мбайт
Продолжительность : 1 ч. 42 м.
Режим общего битрейта : Постоянный
Общий поток : 192 Кбит/сек

Аудио
Формат : AC-3
Формат/Информация : Audio Coding 3
Расширение режима : CM (complete main)
Параметр Endianness формата : Big
Продолжительность : 1 ч. 42 м.
Вид битрейта : Постоянный
Битрейт : 192 Кбит/сек
Каналы : 2 канала
Расположение каналов : Front: L R
Частота : 48,0 КГц
Битовая глубина : 16 бит
Метод сжатия : С потерями
Размер потока : 141 Мбайт (100%)

Общее
Полное имя : D:VideoKladbishe domashnih givotnyh.1989.BDRip.720pKladbishe domashnih givotnyh.1989.eng.srt
Формат : SubRip
Размер файла : 54,5 Кбайт

Текст
Формат : SubRip
Метод сжатия : Без потерь

Общее
Полное имя : D:VideoKladbishe domashnih givotnyh.1989.BDRip.720pKladbishe domashnih givotnyh.1989.MVO.rus.Киномания.ac3
Формат : AC-3
Формат/Информация : Audio Coding 3
Размер файла : 282 Мбайт
Продолжительность : 1 ч. 42 м.
Режим общего битрейта : Постоянный
Общий поток : 384 Кбит/сек

Аудио
Формат : AC-3
Формат/Информация : Audio Coding 3
Расширение режима : CM (complete main)
Параметр Endianness формата : Big
Продолжительность : 1 ч. 42 м.
Вид битрейта : Постоянный
Битрейт : 384 Кбит/сек
Каналы : 6 каналов
Расположение каналов : Front: L C R, Side: L R, LFE
Частота : 48,0 КГц
Битовая глубина : 16 бит
Метод сжатия : С потерями
Размер потока : 282 Мбайт (100%)

Общее
Полное имя : D:VideoKladbishe domashnih givotnyh.1989.BDRip.720pKladbishe domashnih givotnyh.1989.Original.eng.ac3
Формат : AC-3
Формат/Информация : Audio Coding 3
Размер файла : 329 Мбайт
Продолжительность : 1 ч. 42 м.
Режим общего битрейта : Постоянный
Общий поток : 448 Кбит/сек

Аудио
Формат : AC-3
Формат/Информация : Audio Coding 3
Расширение режима : CM (complete main)
Параметр Endianness формата : Big
Продолжительность : 1 ч. 42 м.
Вид битрейта : Постоянный
Битрейт : 448 Кбит/сек
Каналы : 6 каналов
Расположение каналов : Front: L C R, Side: L R, LFE
Частота : 48,0 КГц
Битовая глубина : 16 бит
Метод сжатия : С потерями
Размер потока : 329 Мбайт (100%)

Общее
Полное имя : D:VideoKladbishe domashnih givotnyh.1989.BDRip.720pKladbishe domashnih givotnyh.1989.rus.srt
Формат : SubRip
Размер файла : 51,1 Кбайт

Текст
Формат : SubRip
Метод сжатия : Без потерь

Общее
Полное имя : D:VideoKladbishe domashnih givotnyh.1989.BDRip.720pKladbishe domashnih givotnyh.1989.VO1.rus.ac3
Формат : AC-3
Формат/Информация : Audio Coding 3
Размер файла : 141 Мбайт
Продолжительность : 1 ч. 42 м.
Режим общего битрейта : Постоянный
Общий поток : 192 Кбит/сек

Аудио
Формат : AC-3
Формат/Информация : Audio Coding 3
Расширение режима : CM (complete main)
Параметр Endianness формата : Big
Продолжительность : 1 ч. 42 м.
Вид битрейта : Постоянный
Битрейт : 192 Кбит/сек
Каналы : 2 канала
Расположение каналов : Front: L R
Частота : 48,0 КГц
Битовая глубина : 16 бит
Метод сжатия : С потерями
Размер потока : 141 Мбайт (100%)

Общее
Полное имя : D:VideoKladbishe domashnih givotnyh.1989.BDRip.720pKladbishe domashnih givotnyh.1989.VO2.rus.ac3
Формат : AC-3
Формат/Информация : Audio Coding 3
Размер файла : 141 Мбайт
Продолжительность : 1 ч. 42 м.
Режим общего битрейта : Постоянный
Общий поток : 192 Кбит/сек

Аудио
Формат : AC-3
Формат/Информация : Audio Coding 3
Расширение режима : CM (complete main)
Параметр Endianness формата : Big
Продолжительность : 1 ч. 42 м.
Вид битрейта : Постоянный
Битрейт : 192 Кбит/сек
Каналы : 2 канала
Расположение каналов : Front: L R
Частота : 48,0 КГц
Битовая глубина : 16 бит
Метод сжатия : С потерями
Размер потока : 141 Мбайт (100%)
pb.wtf



Скачать Кладбище домашних животных через торрент http://i67.fastpic.ru/big/2014/1006/94/3e1fee584938589998d8c44920faed94.jpg Скачать фильм Кладбище домашних животных через торрент бесплантно в хорошем качестве Описание: Доктор Луис Крид переезжает в маленький городок, где его семью ждет большой дом, а самого Луиса скромная должность лечащего врача ... 10 10 6
Торрент: Зарегистрирован [2014-10-06 08:47] · скачан: 36 раз
Статус: √ проверено
Размер: 12.85 GB
Как cкачать? Как скачать Кладбище домашних животных через торрент | qTorrent

% Раздел Тема Автор DL S | L
Ultra HD (UHD: 2K, 4K, 8K) — видео сверхвысокой чёткости [ 55.06 GB ] Кладбище домашних животных / Pet Sematary [1989 UHD BDRemux 2160p] 3xMVO + 2xDVO + 4xAVO sheker187 Скачать
1 | 0
Фильмы (Blu-ray, BD-Remux, HDDVD) [ 41.4 GB ] Кладбище домашних животных / Pet Sematary [1989 BDRemux 1080p] 2xMVO + 3xDVO + 2xVO + 4xAVO sheker187 Скачать
1 | 0
Фильмы [HD 720p, 1080p] (Хороший звук DUB, MVO) [ 21.01 GB ] Кладбище домашних животных / Pet Sematary [1989 BDRip 1080p] MVO DVO AVO VO msltel Скачать
1 | 0

28-11-2019 20:33  

Отключить всю рекламу на сайте

06-10-2014 12:23 Кладбище домашних животных Скачать торрент  

Классный фильмец ...pb.wtf



    Дорогой пользователь! Огромная просьба, поблагодарите релизера, оцените раздачу и оставьте свои комментарий, если Вы скачали Кладбище домашних животных через торрент бесплатно! Внесите свою лепту в развитие PiratBit!
    Комментировать посты могут только пользователи прошедшие не сложную регистрацию
    Показать сообщения:    

    Кладбище домашних животных через торрент
    Скачать бесплатно Кладбище домашних животных
    Кладбище домашних животных скачать торрент
    Кладбище домашних животных смотреть онлайн
    Cкачать фильм Кладбище домашних животных бесплатно
    Кладбище домашних животных скачать торрент в хорошем качестве
    Кладбище домашних животных смотреть онлайн бесплатно в хорошем качестве


    Вы не можете начинать темы
    Вы не можете отвечать на сообщения
    Вы не можете редактировать свои сообщения
    Вы не можете удалять свои сообщения
    Вы не можете голосовать в опросах
    Вы не можете прикреплять файлы к сообщениям
    Вы можете скачивать файлы