Мега распродажа FORZA HORIZON 4 ULTIMATE+ВСЕ DLC+ОНЛАЙН всего за 499р. 349 руб. (супер цена). Внимание количество ограничено!!!

Лицензия

30

iTunes

мы

iTunes

1

1 сезон

Чернобыль

1 сезон

Ральф против интернета

MVO

Покемон. Детектив Пикачу

8 сезон

Игра престолов

iTunes

1+1

ИГРА 18+

pack

ВАЖНО

!!Акция!!

Alien_RageХит недели

RePack

Resident Evil 21
pack

RePack

Metro:Exodus

!!Акция!!

Alien_Rage

RePack

fifa19

RePack

Assassins Creed: Odyssey

RePack

NEED FOR SPEED™ PAYBACK

3 сезон

9 сезон

Бесстыжие 9 сезон

Все сериалы

все сериалы на PB.wtf

RePack

FAR CRY 5
Ребята, катастрофически не хватает 2730р. для оплаты серверов за МАЙ (всвязи с блокировками трафик упал в 3 раза), 1-2р., выручайте.
  

Артефакт (Андрей Соколов) [2009, Россия, фантастика, триллер, мелодрама, DVDRip] pb.wtf

Артефакт через торрент pb.wtf

Размер: 1.46 GB | Добавлен: 4 года 8 мес. назад | Торрент скачан:96 раз
Скачать  

06-10-2014 13:10 Артефакт Скачать торрент  

Артефакт «Нереальная любовь»
Год выпуска: 2009
Страна: Россия
Жанр: фантастика, триллер, мелодрама, приключения
Продолжительность: 01:24:24
Перевод: Не требуется
Субтитры: Отсутствует
Режиссер: Андрей Соколов
В ролях:


Анастасия Заворотнюк (Рита), Александр Лазарев мл. (Виктор), Валерий Николаев (Эрик), Алексей Панин (аферист на дороге), Гарик Харламов (ругающийся), Ксения Собчак (ругающаяся), Лидия Федосеева-Шукшина (Нина), Юрий Кузьменко (старик), Александра Волкова (молодая торговка), Андрей Соколов (в титрах не указан), Анна Гольдес, Михаил Борисов (капитан Егоров)

Описание:
Двое незнакомых друг с другом людей отправляются в совместное путешествие из Москвы к морю на юг. Виктор - в прошлом успешный программист, создатель виртуального бестселлера - программы под названием «Артефакт». Но жизнь его надломила трагедия, погибла любимая жена...
Его попутчица - фотожурналистка; эксцентричная и нахальная девица, печатается в модных изданиях. У каждого из них - свое прошлое и свой мотив для этого путешествия. Их маршрут из дождливой Москвы к теплу юга, от отчуждения к зарождению чувства, которое проходит проверку глубоко интимными воспоминаниями.
Путешественники переживают неожиданные приключения, видят сотни лиц, пересекают огромную страну. Все это решено в колоритных микроновеллах. Постепенно герои осознают, что путешествие проходит не в одном, а в двух пространствах: реальность перетекает в миры фантазий, реализуя желания героев, иногда весьма опасные...

Рейтинг:
Бюджет: $5 000 000

Качество: DVDRip
Формат: AVI
Видео кодек:XviD
Аудио кодек:AC3
Видео: XviD, 704x320 (2.2:1), 2024 kbps, 25 fps, 0,360 bpp
Аудио: AC3 / 5.1 / 48 kHz / 448 kbps / 16 bit

General
Complete name : D:\Users\_KaisiK_\uTorrent\КИНО\Artefakt.2009.DVDRip.avi
Format : AVI
Format/Info : Audio Video Interleave
File size : 1.46 GiB
Duration : 1h 24mn
Overall bit rate : 2 481 Kbps
Movie name : Артефакт (2009) DVDRip
Genre : Фантастика, триллер, мелодрама, приключения
Recorded date : 04.10.2014
Writing application : VirtualDubMod 1.5.10.3 | www.virtualdub-fr.org || (build 2550/release)
Writing library : VirtualDubMod build 2550/release
Copyright : rip by ivandubskoj

Video
ID : 0
Format : MPEG-4 Visual
Format profile : Advanced Simple@L5
Format settings, BVOP : 1
Format settings, QPel : No
Format settings, GMC : No warppoints
Format settings, Matrix : Custom
Codec ID : XVID
Codec ID/Hint : XviD
Duration : 1h 24mn
Bit rate : 2 025 Kbps
Width : 704 pixels
Height : 320 pixels
Display aspect ratio : 2.2:1
Frame rate : 25.000 fps
Color space : YUV
Chroma subsampling : 4:2:0
Bit depth : 8 bits
Scan type : Progressive
Compression mode : Lossy
Bits/(Pixel*Frame) : 0.360
Stream size : 1.19 GiB (82%)
Writing library : XviD 73

Audio
ID : 1
Format : AC-3
Format/Info : Audio Coding 3
Mode extension : CM (complete main)
Codec ID : 2000
Duration : 1h 24mn
Bit rate mode : Constant
Bit rate : 448 Kbps
Channel(s) : 6 channels
Channel positions : Front: L C R, Side: L R, LFE
Sampling rate : 48.0 KHz
Bit depth : 16 bits
Compression mode : Lossy
Stream size : 270 MiB (18%)
Alignment : Split accross interleaves
Interleave, duration : 64 ms (1.60 video frames)
Interleave, preload duration : 500 ms
Title : Russian

[/code]
pb.wtf



Скачать Артефакт через торрент http://pic.kartinco.top/images/7/q61fi.jpg Скачать фильм Артефакт через торрент бесплантно в хорошем качестве Описание: Двое незнакомых друг с другом людей отправляются в совместное путешествие из Москвы к морю на юг. Виктор - в прошлом успешный ... 8.9 10 8
Торрент: Зарегистрирован [2014-10-06 13:10] · скачан: 96 раз
Статус: √ проверено
Размер: 1.46 GB
Как cкачать? Как скачать Артефакт через торрент | qTorrent

% Раздел Тема Автор DL S | L
Фантастика [ 783 MB ] Константин Назимов - Поисковик 1. Магический песок и артефакты [Белик Юрий 2019 128 kbps MP3] bober100 Скачать
4 | 1
Фантастика [ 537 MB ] Виктор Угаров - Дозоры: Дикий артефакт [Воронецкий Станислав 2019 128 kbps MP3] bober100 Скачать
3 | 0
Фантастика [ 703 MB ] Константин Назимов - Рыскач 1. Артефакты истинных магов [Белик Юрий 2018 128 kbps MP3] oleg8 Скачать
1 | 0
# Фильмы 2001-2005 [ 1.09 GB ] Артефакт / Wishcraft [2002 DVDRip-AVC] [DVO] killermax2013 Скачать
1 | 0
Фантастика [ 777 MB ] Сборник - S.W.A.L.K.E.R.: Похитители артефактов [2016 г Юмор аудиокнига MP3 128kbps] Magnat Скачать
2 | 0
Документальные фильмы и телепередачи [ 4.66 GB ] Артефакт / Artifact [2012 документальный музыка BDRip 720p] Original + Rus Sub от R.G. PiratFilms Messa-fan Скачать
1 | 0
Фильмы 2001-2005 [ 1.46 GB ] Артефакт / Wishcraft [2001 DVDRip ] Ворон Скачать
1 | 0


>> Регистрируемся здесь <<






Отзывы и комментарии о схеме читаем и пишем здесь: ---> Отзывы и комментарии о схеме

Новые благодарочки в телеграм довольных пользователей:
скриншот   скриншот   скриншот   скриншот   скриншот
    Дорогой пользователь! Огромная просьба, поблагодарите релизера, оцените раздачу и оставьте свои комментарий, если Вы скачали Артефакт через торрент бесплатно! Внесите свою лепту в развитие PiratBit!
    Комментировать посты могут только пользователи прошедшие не сложную регистрацию
    Показать сообщения:    

    Артефакт через торрент
    Скачать бесплатно Артефакт
    Артефакт скачать торрент
    Артефакт смотреть онлайн
    Cкачать фильм Артефакт бесплатно
    Артефакт скачать торрент в хорошем качестве
    Артефакт смотреть онлайн бесплатно в хорошем качестве


    Вы не можете начинать темы
    Вы не можете отвечать на сообщения
    Вы не можете редактировать свои сообщения
    Вы не можете удалять свои сообщения
    Вы не можете голосовать в опросах
    Вы не можете прикреплять файлы к сообщениям
    Вы можете скачивать файлы