1 сезон

1 сезон

iTunes

1

КиноПоиск HD

Кинопоиск HD

iTunes

13

1 сезон

RePack

30

Новинка

ВАЖНО

ИГРА 18+

pack

RePack

MK11
pack

Легкие деньги

RePack

jed

RePack

fifa19

RePack

RDR2

RePack

NEED FOR SPEED™ PAYBACK

4 сезон

9 сезон

Бесстыжие 9 сезон

Все сериалы

все сериалы на PB.wtf

RePack

FAR CRY 5
  
Magnet ссылка

Вокруг света за 80 дней / Around the World in 80 Days (Фрэнк Корачи / Frank Coraci) [2004, США, Германия, Ирландия, Великобритания, боевик, мелодрама, комедия, BDRip, Дубляж] pb.wtf

Вокруг света за 80 дней через торрент pb.wtf

Размер: 2.19 GB | Добавлен: 6 лет 6 мес. назад | Торрент скачан:223 раза
Скачать  

06-10-2014 16:46 Вокруг света за 80 дней Скачать торрент  

Вокруг света за 80 дней / Around the World in 80 Days«Let your imagination soar»
Год выпуска: 2004
Страна: США, Германия, Ирландия, Великобритания
Жанр: боевик, мелодрама, комедия, приключения, семейный, вестерн
Продолжительность: 02:00:16
Перевод: Дублированный (Невафильм) + профессиональный двухголосый (Tycoon-Studio)
Субтитры: Отсутствует
Режиссер: Фрэнк Корачи / Frank Coraci
В ролях:


Джеки Чан (Passepartout / Lau Xing), Стив Куган (Phileas Fogg), Сесиль Де Франс (Monique La Roche), Роберт Файф (Jean Michel), Джим Бродбент (Lord Kelvin), Иэн МакНис (Colonel Kitchener), Дэвид Райалл (Lord Salisbury), Роджер Хэммонд (Lord Rhodes), Адам Годли (Mr. Sutton), Ховард Купер (Academy Member #1), Карен Мок (General Fang), Дэниэл Хинчклифф (British Valet)

Описание:
Эксцентричный лондонский изобретатель Филеас Фогг раскрыл тайны полетов, электричества и многие другие, но общество не принимает его, считая сумасшедшим. Фоггу очень хочется, чтобы к нему относились серьезно, и он заключает необычное пари с лордом Келвином, главой Королевской академии наук: он берется совершить путешествие вокруг земного шара не более чем за 80 дней.
Вместе со своим лакеем Паспарту и жаждущей острых ощущений французской художницей Моник Фогг пускается в безумную, захватывающую кругосветную гонку по суше, морю и воздуху. Во время головокружительного путешествия наши герои попадают в самые экзотические уголки планеты. В пути их ждут многочисленные приключения и препятствия...

Рейтинг:
Бюджет:$110 000 000
MPAA: PG - Рекомендуется присутствие родителей
Качество: BDRip
Формат: AVI
Видео кодек:XviD
Аудио кодек:AC3
Видео: XviD, 720x304 (2.35:1), 1821 kbps, 23,976 fps, 0,347 bpp
Аудио №1: AC3 / 5.1 / 48 kHz / 384 kbps / 16 bit - Дублированный (Невафильм)
Аудио №2: AC3 / 5.1 / 48 kHz / 384 kbps / 16 bit - Профессиональный двухголосый (Tycoon-Studio)


General
Complete name : D:\Users\_KaisiK_\uTorrent\КИНО\Vokrug.sveta.za.80.dnej.2004.BDRip.avi
Format : AVI
Format/Info : Audio Video Interleave
Format profile : OpenDML
File size : 2.19 GiB
Duration : 2h 0mn
Overall bit rate : 2 603 Kbps
Movie name : Вокруг света за 80 дней / Around the World in 80 Days (2004) BDRip
Genre : Приключения, боевик, драма, мелодрама, вестерн, экранизация
Recorded date : 04.10.2014
Writing application : VirtualDubMod 1.5.10.3 | www.virtualdub-fr.org || (build 2550/release)
Writing library : VirtualDubMod build 2550/release
Copyright : rip by ivandubskoj

Video
ID : 0
Format : MPEG-4 Visual
Format profile : Advanced Simple@L5
Format settings, BVOP : 1
Format settings, QPel : No
Format settings, GMC : No warppoints
Format settings, Matrix : Custom
Codec ID : XVID
Codec ID/Hint : XviD
Duration : 2h 0mn
Bit rate : 1 821 Kbps
Width : 720 pixels
Height : 304 pixels
Display aspect ratio : 2.35:1
Frame rate : 23.976 fps
Color space : YUV
Chroma subsampling : 4:2:0
Bit depth : 8 bits
Scan type : Progressive
Compression mode : Lossy
Bits/(Pixel*Frame) : 0.347
Stream size : 1.53 GiB (70%)
Writing library : XviD 73

Audio #1
ID : 1
Format : AC-3
Format/Info : Audio Coding 3
Mode extension : CM (complete main)
Codec ID : 2000
Duration : 2h 0mn
Bit rate mode : Constant
Bit rate : 384 Kbps
Channel(s) : 6 channels
Channel positions : Front: L C R, Side: L R, LFE
Sampling rate : 48.0 KHz
Bit depth : 16 bits
Compression mode : Lossy
Stream size : 330 MiB (15%)
Alignment : Split accross interleaves
Interleave, duration : 64 ms (1.53 video frames)
Interleave, preload duration : 500 ms
Title : DUB, R5 [Невафильм]

Audio #2
ID : 2
Format : AC-3
Format/Info : Audio Coding 3
Mode extension : CM (complete main)
Codec ID : 2000
Duration : 2h 0mn
Bit rate mode : Constant
Bit rate : 384 Kbps
Channel(s) : 6 channels
Channel positions : Front: L C R, Side: L R, LFE
Sampling rate : 48.0 KHz
Bit depth : 16 bits
Compression mode : Lossy
Stream size : 330 MiB (15%)
Alignment : Split accross interleaves
Interleave, duration : 64 ms (1.53 video frames)
Interleave, preload duration : 500 ms
Title : DVO, R7 [Tycoon-Studio]

[/code]
pb.wtf



Скачать Вокруг света за 80 дней через торрент http://i4.imageban.ru/out/2014/10/06/6e74930633969d29d729fe7828af5837.png Скачать фильм Вокруг света за 80 дней через торрент бесплантно в хорошем качестве Описание: Эксцентричный лондонский изобретатель Филеас Фогг раскрыл тайны полетов, электричества и многие другие, но общество не принимает ... 10 10 8
Торрент: Зарегистрирован [2014-10-06 16:46] · скачан: 223 раз
Статус: √ проверено
Размер: 2.19 GB
Как cкачать? Как скачать Вокруг света за 80 дней через торрент | UTorrent

% Раздел Тема Автор DL S | L
Фильмы до 2000 г. [ 4.32 GB ] Вокруг света в 80 дней / Вокруг света за 80 дней / Around the World in Eighty Days [1956 экранизация Screener > DVD][Советская прокатная копия] killermax2013 Скачать
1 | 0
Фильмы [HD 720p, 1080p] (Хороший звук DUB, MVO) [ 6 GB ] Вокруг Света за 80 Дней / Around the World in 80 Days [2004 BDRip 1080p HEVC +AVO ] Мичман37 Скачать
1 | 0
Фильмы с авторской озвучкой [ 2.07 GB ] Вокруг Света за 80 Дней / Around the World in 80 Days [2004 BDRip] [AVO] killermax2013 Скачать
1 | 0
Фильмы [HD 720p, 1080p] (Хороший звук DUB, MVO) [ 15.3 GB ] Вокруг света за 80 дней / Around the World in 80 Days [2004 BDRip 1080p by msltel] DUB DVO msltel Скачать
1 | 0
Фильмы [HD 720p, 1080p] (Хороший звук DUB, MVO) [ 4.88 GB ] Вокруг света за 80 дней / Around the World in 80 Days [2004 BDRip 720p by msltel] DUB DVO msltel Скачать
1 | 0
Мультсериалы [ 4.74 GB ] Вокруг света за 80 дней / Around the world in eighty days/16 серий из 16 [1972 DVDRip] alexx Скачать
1 | 0
Фильмы (Blu-ray, BD-Remux, HDDVD) [ 32.42 GB ] Вокруг Света за 80 Дней / Around the World in 80 Days [2004 BD-Remux ] Артронах Скачать
1 | 0

28-11-2019 20:33  

Отключить всю рекламу на сайте

    Дорогой пользователь! Огромная просьба, поблагодарите релизера, оцените раздачу и оставьте свои комментарий, если Вы скачали Вокруг света за 80 дней через торрент бесплатно! Внесите свою лепту в развитие PiratBit!
    Комментировать посты могут только пользователи прошедшие не сложную регистрацию
    Показать сообщения:    

    Вокруг света за 80 дней через торрент
    Скачать бесплатно Вокруг света за 80 дней
    Вокруг света за 80 дней скачать торрент
    Вокруг света за 80 дней смотреть онлайн
    Cкачать фильм Вокруг света за 80 дней бесплатно
    Вокруг света за 80 дней скачать торрент в хорошем качестве
    Вокруг света за 80 дней смотреть онлайн бесплатно в хорошем качестве


    Вы не можете начинать темы
    Вы не можете отвечать на сообщения
    Вы не можете редактировать свои сообщения
    Вы не можете удалять свои сообщения
    Вы не можете голосовать в опросах
    Вы не можете прикреплять файлы к сообщениям
    Вы можете скачивать файлы