новый адрес
Ссылка на приватное зеркало всего за 1$. Внимание количество ограничено!!!

iTunes

1+1

iTunes

мы

iTunes

1

iTunes

Чернобыль

iTunes

Ральф против интернета

Лицензия

ПШазам

Лицензия

Оно 2

Лицензия

30
pack

Вам бонус

ВАЖНО

!!Акция!!

Alien_RageХит недели

RePack

Resident Evil 21

ИГРА 18+

pack

RePack

jed

!!Акция!!

Alien_Rage

RePack

fifa19

RePack

Assassins Creed: Odyssey

RePack

NEED FOR SPEED™ PAYBACK

3 сезон

9 сезон

Бесстыжие 9 сезон

Все сериалы

все сериалы на PB.wtf

RePack

FAR CRY 5
Ребята, катастрофически не хватает 1900р. для оплаты серверов за Октябрь (всвязи с блокировками трафик упал в 3 раза), 1-2р., выручайте.
  

Дипломная работа / Tesis (Алехандро Аменабар / Alejandro Amenábar) [1996, Испания, триллер, детектив, BDRip-AVC] MVO (R5) + Original (Esp) + Sub (rus, eng) pb.wtf

Дипломная работа через торрент pb.wtf

Раздают: 1 [ 0 KB/s ]
Размер: 2.18 GB | Добавлен: 5 лет 1 мес. назад | Торрент скачан:52 раза
Скачать  

06-10-2014 17:59 Дипломная работа Скачать торрент  

Дипломная работа
Tesis

«Me llamo Ángela. Me van a matar»




Страна: Испания
Студия: Las Producciones del Escorpión S.L., Sogepaq
Жанр: триллер, детектив
Год выпуска: 1996
Продолжительность: 02:04:01

Перевод: Профессиональный (многоголосый закадровый) [Лицензия R5]
Cубтитры: Русские, Английские
Оригинальная аудиодорожка: Испанский

Режиссер:
Алехандро Аменабар / Alejandro Amenábar

В ролях:
Ана Торрент, Феле Мартинес, Эдуардо Норьега, Ксабьер Элорриага, Мигель Пикасо, Ньевес Эрранс, Роса Кампильо, Франсиско Эрнандес, Роса Авила, Тереса Кастанедо

Описание:
Знаете ли Вы, что такое «снафф-муви», или на жаргоне «мокрое видео»? Это документальные порнофильмы, в которых засняты настоящие насилие и убийство. О существовании таких кассет ходят легенды, за ними охотятся как почитатели извращенного видео, так и агенты спецслужб. Но кто видел настоящий снафф?

Студентка киношколы, пишущая диссертацию о насилии в кино, находит видеокассету со снаффом. Героиня понимает, что на кассете запечатлено жестокое убийство студентки той же школы, исчезнувшей несколько лет назад.

Начав собственное расследование, она узнает, что пропажи девушек в их институте — не такое уж редкое явление. Значит, вместе с ней учится маньяк и садист.

Возможно, это кто-то из ее хороших знакомых, возможно, это ее друг.


Релиз:

Автор рипа: Stalker oK

Сэмпл: multi-up

Качество видео: BDRip-AVC [Blu-ray Remux 1080p]
Формат видео: MKV
Видео кодек: AVC
Аудио кодек: AC3
Видео: 1620 Кбит/сек, 1010*546 (1,850), в 24,000 кадр/сек, AVC
Аудио #1: Russian, 448 Кбит/сек, 48,0 КГц, 16 бит, 6 канала(ов), AC-3
Аудио #2: English, 448 Кбит/сек, 48,0 КГц, 16 бит, 6 канала(ов), AC-3
Общее
Уникальный идентификатор : 209520074089287440450210756983410612079 (0x9DA01934EDC486EC9E2F77E9A1E7576F)
Полное имя : O:\temp\Дипломная работа\Diplomnaja.rabota.1996.BDRip-AVC.MVO.2.18Gb...stalkerok.new-team.mkv
Формат : Matroska
Размер файла : 2,18 Гбайт
Продолжительность : 2 ч. 4 м.
Общий поток : 2518 Кбит/сек
Название фильма : Tesis, 1996 (New-Team) (Rip by Stalker oK)
Дата кодирования : UTC 2014-09-29 20:27:15
Программа кодирования : mkvmerge v6.1.0 ('Old Devil') built on Mar 4 2013 09:10:42
Библиотека кодирования : libebml v1.3.0 + libmatroska v1.4.0

Видео
Идентификатор : 1
Формат : AVC
Формат/Информация : Advanced Video Codec
Профиль формата : High@L4.1
Параметр CABAC формата : Да
Параметр ReFrames формата : 10 кадры
Идентификатор кодека : V_MPEG4/ISO/AVC
Продолжительность : 2 ч. 4 м.
Битрейт : 1620 Кбит/сек
Ширина : 1010 пикс.
Высота : 546 пикс.
Соотношение сторон : 1,850
Частота кадров : 24,000 кадр/сек
Цветовое пространство : YUV
Подвыборка цветности : 4:2:0
Битовая глубина : 8 бит
Тип развёртки : Прогрессивная
Бит/(Пиксели*Кадры) : 0.122
Размер потока : 1,36 Гбайт (62%)
Библиотека кодирования : x264 core 142 r2431 ac76440
Настройки программы : cabac=1 / ref=10 / deblock=1:-2:-1 / analyse=0x3:0x133 / me=tesa / subme=11 / psy=1 / psy_rd=1.10:0.05 / mixed_ref=1 / me_range=48 / chroma_me=1 / trellis=2 / 8x8dct=1 / cqm=0 / deadzone=21,11 / fast_pskip=0 / chroma_qp_offset=-3 / threads=12 / lookahead_threads=3 / sliced_threads=0 / nr=0 / decimate=0 / interlaced=0 / bluray_compat=0 / constrained_intra=0 / bframes=11 / b_pyramid=2 / b_adapt=2 / b_bias=0 / direct=3 / weightb=1 / open_gop=0 / weightp=2 / keyint=240 / keyint_min=24 / scenecut=40 / intra_refresh=0 / rc_lookahead=80 / rc=2pass / mbtree=0 / bitrate=1620 / ratetol=1.0 / qcomp=0.70 / qpmin=0 / qpmax=69 / qpstep=4 / cplxblur=20.0 / qblur=0.5 / vbv_maxrate=25000 / vbv_bufsize=30000 / nal_hrd=none / filler=0 / ip_ratio=1.30 / pb_ratio=1.20 / aq=2:1.10

Аудио #1
Идентификатор : 2
Формат : AC-3
Формат/Информация : Audio Coding 3
Расширение режима : CM (complete main)
Идентификатор кодека : A_AC3
Продолжительность : 2 ч. 4 м.
Вид битрейта : Постоянный
Битрейт : 448 Кбит/сек
Канал(ы) : 6 канала(ов)
Расположение каналов : Front: L C R, Side: L R, LFE
Частота : 48,0 КГц
Битовая глубина : 16 бит
Метод сжатия : С потерями
Размер потока : 397 Мбайт (18%)
Язык : Russian

Аудио #2
Идентификатор : 3
Формат : AC-3
Формат/Информация : Audio Coding 3
Расширение режима : CM (complete main)
Идентификатор кодека : A_AC3
Продолжительность : 2 ч. 4 м.
Вид битрейта : Постоянный
Битрейт : 448 Кбит/сек
Канал(ы) : 6 канала(ов)
Расположение каналов : Front: L C R, Side: L R, LFE
Частота : 48,0 КГц
Битовая глубина : 16 бит
Метод сжатия : С потерями
Размер потока : 397 Мбайт (18%)
Язык : English

Текст #1
Идентификатор : 4
Формат : UTF-8
Идентификатор кодека : S_TEXT/UTF8
Идентификатор кодека/Информация : UTF-8 Plain Text
Язык : Russian

Текст #2
Идентификатор : 5
Формат : UTF-8
Идентификатор кодека : S_TEXT/UTF8
Идентификатор кодека/Информация : UTF-8 Plain Text
Язык : English

Меню
00:00:00.000 : en:Chapter 0
00:05:00.000 : en:Chapter 0
00:10:00.000 : en:Chapter 0
00:15:00.000 : en:Chapter 0
00:20:00.000 : en:Chapter 0
00:25:00.000 : en:Chapter 0
00:30:00.000 : en:Chapter 0
00:35:00.000 : en:Chapter 0
00:40:00.000 : en:Chapter 0
00:45:00.000 : en:Chapter 0
00:50:00.000 : en:Chapter 0
00:55:00.000 : en:Chapter 0
01:00:00.000 : en:Chapter 0
01:05:00.000 : en:Chapter 0
01:10:00.000 : en:Chapter 0
01:15:00.000 : en:Chapter 0
01:20:00.000 : en:Chapter 0
01:25:00.000 : en:Chapter 0
01:30:00.000 : en:Chapter 0
01:35:00.000 : en:Chapter 0
01:40:00.000 : en:Chapter 0
01:45:00.000 : en:Chapter 0
01:50:00.000 : en:Chapter 0
01:55:00.000 : en:Chapter 0
02:00:00.000 : en:Chapter 0
pb.wtf



Скачать Дипломная работа через торрент http://i4.imageban.ru/out/2013/11/20/23afd37ba301cf29b16658cd2201c4ed.png Скачать фильм Дипломная работа через торрент бесплантно в хорошем качестве Описание:Знаете ли Вы, что такое «снафф-муви», или на жаргоне «мокрое видео»? Это документальные порнофильмы, в которых засняты настоящие ... 10 10 1
Торрент: Зарегистрирован [2014-10-06 18:00] · скачан: 52 раз
Статус: √ проверено
Размер: 2.18 GB
Как cкачать? Как скачать Дипломная работа через торрент | qTorrent

% Раздел Тема Автор DL S | L
Фильмы [HD 720p, 1080p] (Хороший звук DUB, MVO) [ 18.21 GB ] Дипломная работа / Tesis [1996 BDRip 1080p] MVO Леонид Ильич Скачать
1 | 0
Арт-хаус и авторское кино [ 745 MB ] Дипломная работа / Tesis [1996 Испания BDRip-AVC] MVO + Sub sokol_ok Скачать
2 | 0
Арт-хаус и авторское кино [ 1.41 GB ] Дипломная работа / Tesis [1996 Испания BDRip-AVC] MVO + Sub sokol_ok Скачать
2 | 0
Отключить всю рекламу на сайте
    Дорогой пользователь! Огромная просьба, поблагодарите релизера, оцените раздачу и оставьте свои комментарий, если Вы скачали Дипломная работа через торрент бесплатно! Внесите свою лепту в развитие PiratBit!
    Комментировать посты могут только пользователи прошедшие не сложную регистрацию
    Показать сообщения:    

    Дипломная работа через торрент
    Скачать бесплатно Дипломная работа
    Дипломная работа скачать торрент
    Дипломная работа смотреть онлайн
    Cкачать фильм Дипломная работа бесплатно
    Дипломная работа скачать торрент в хорошем качестве
    Дипломная работа смотреть онлайн бесплатно в хорошем качестве


    Вы не можете начинать темы
    Вы не можете отвечать на сообщения
    Вы не можете редактировать свои сообщения
    Вы не можете удалять свои сообщения
    Вы не можете голосовать в опросах
    Вы не можете прикреплять файлы к сообщениям
    Вы можете скачивать файлы