Ссылка на приватное зеркало нашего сайта всего за 1$. Внимание количество ограничено!!!

2 сезон

iTunes

1 сезон

1

iTunes

iTunes

iTunes

1 сезон

RePack

30

ИГРА 18+

pack

ВАЖНО

!!Акция!!

Alien_RageХит недели

RePack

MK11
pack

Забери бонус

RePack

jed

!!Акция!!

Alien_Rage

RePack

fifa19

RePack

Assassins Creed: Odyssey

RePack

NEED FOR SPEED™ PAYBACK

4 сезон

9 сезон

Бесстыжие 9 сезон

Все сериалы

все сериалы на PB.wtf

RePack

FAR CRY 5
  

Карпов 3 сезон 1-32 серии из 32 (Иван Щёголев, Сергей Лесогоров) [2014 г., Детектив, драма, DVB - AVC] pb.wtf

Карпов 3 сезон 1-32 серии из 32 через торрент pb.wtf

Размер: 26.37 GB | Добавлен: 5 лет 11 мес. назад | Торрент скачан:156 раз
Скачать  

06-10-2014 21:46 Карпов 3 сезон 1-32 серии из 32 Скачать торрент  

Карпов
Год выпуска: 2014
Страна: Россия
Жанр: Детектив, криминальный фильм, драма
Продолжительность: 32 x ~ 00:43:00
Субтитры: нет

Режиссер: Иван Щёголев, Сергей Лесогоров

В ролях: Владислав Котлярский, Степан Рожнов, Николай Козак, Анна Михайловская, Максим Щёголев, Юлия Майборода, Андрей Сорока, Виктория Тарасова, Дмитрий Мазуров, Тимур Ефременков, Дмитрий Блажко, Денис Рожков, Ева Авеева, Мария Болонкина, Владимир Фекленко, Владимир Яковлев, Мария Рассказова, Татьяна Исаева, Анатолий Петров, Екатерина Маликова, Наталья Гудкова, Мария Болтнева, Александр Бобров, Александр Касаткин, Ольга Шеховцова, Валерий Новиков, Александр Павленко, Олег Евтеев, Екатерина Шмакова, Анастасия Маринина

Описание: В третьей части сериала полюбившиеся зрителю герои объявят войну банде торговцев детьми и их клиентам-педофилам. Карпов и его компания примут решение расправиться с торговцами детьми «по-тихому», каждый раз маскируя их гибель под несчастный случай. Но, между тем, бывшие менты прекрасно понимают: истребить преступников до конца невозможно. И на их место непременно придут новые.

Качество:DVB - AVC
Формат: TS
Видео кодек: AVC
Аудио кодек: MP2
Видео: MPEG-4 AVC, (1047x576),2800 Кбит/с, 25.000 кадра/сек
Аудио#1: MP2 2 ch, 192 kbps (Rus) 48.0 KHz Оригинал
скриншот   скриншот   скриншот  

Тип потока: Видео
Длительность: 00:42:43
Кодек: AVC
Кодек/описание: Advanced Video Codec
Кодек/профиль: High@L3.0
Кодек/ID: 27
Кодек/CABAC: Yes
Кодек/ReFrames: 4 frames
Размеры изображения: 1047 x 576 (16:9)
Частота кадров: 25.000 fps
Размер потока: 700 MiB (88%)
Битрейт: 2 800 Kbps
Стандарт: Component
Цветовое пространство: YUV
Тип развёртки: Interlaced
Колориметрия: 4:2:0
Глубина: 8 bits
:
Тип потока: Звук #1
Язык: Russian
Длительность: 00:42:43.080
Кодек: MPEG Audio
Кодек/профиль: Layer 2
Кодек/ID: 3
Частота дискретизации: 48.0 KHz
Каналов: 2 channels
Битрейт: 192 Kbps
Битрейт/тип: Constant
Размер потока: 58.7 MiB (7%)
Метод сжатия: Lossy

01-«Убийца»
02-«Откровение»
03-«Когда мы были милицией»
04-«Цепные псы»
05-«Кровь их на них»
06-«Ребёнок»
07-«Заметая следы»
08-«Выхода нет»
09-«Жертва»
10-«Всего одна ночь»
11-«Побег»
12-«Город N»
13-«Мышеловка»
14-«Банда»
15-«Старый друг»
16-«Свет в аду»
17-«Необходимое зло»
18-«Выбирая сторону»
19-«Король»
20-«Война и мир»
21-«Мама»
22-«По закону»
23-«Родная кровь»
24-«Круговорот»
25-«Опасное видео»
26-«Темные пятна»
27-«Шрамы»
28-«Безумный мир»
29-«Заложница»
30-«Мясо»
31-«Отец и дети»
32-«Хороший человек»
Внимание! Раздача ведётся путём добавления новых серий; при каждом добавлении создётся новый торрент. Чтобы начать докачку новой серии, пользователям необходимо сделать следующее:
Остановить скачивание,
Удалить старый торрент у себя из клиента (старые серии удалять не надо),
Скачать новый торрент и запустить его у себя в клиенте вместо старого, при этом указать клиенту путь в старую папку куда и должно происходить скачивание новых серий.
Ваш клиент при этом должен произвести хеширование (проверку) старой папки (если не производит сам - помогите ему сделать это), и будет докачивать только те серии которых у вас ещё нет. Старые серии при этом не удаляются, а продолжают раздаваться!

Eсли вы уже удалили старые серии, то предотвратить повторную закачку старых серий можно, отжав галочку в соответсвующих местах при запуске нового торрента. По возможности, желательно не удалять старые серии как можно дольше чтобы релизёр не столько продолжал раздавать старые серии, а смог сконцентрироваться на новых.
ДОБАВЛЕНА 31-32 СЕРИЯ ПЕРЕЗАЛЕЙТЕ ТОРРЕНТ ФАИЛpb.wtf



Скачать Карпов 3 сезон 1-32 серии из 32 через торрент http://pic.kartinco.top/images/7/miv3p.jpg Скачать фильм Карпов 3 сезон 1-32 серии из 32 через торрент бесплантно в хорошем качестве Описание: В третьей части сериала полюбившиеся зрителю герои объявят войну банде торговцев детьми и их клиентам-педофилам. Карпов и его ... 9.8 10 49
Info! Золотая раздача, скачанное не засчитывается.
Торрент: Зарегистрирован [2014-10-31 13:02] · скачан: 156 раз
Статус: √ проверено
Размер: 26.37 GB
Как cкачать? Как скачать Карпов 3 сезон 1-32 серии из 32 через торрент | qTorrent

% Раздел Тема Автор DL S | L
Наши сериалы [ 19.31 GB ] Карпов / Сезон: 3 / Серия 1-32 [2014 SATRip] White Smoke Скачать
1 | 0


Последний раз редактировалось: Бумер (2014-10-31 13:02), всего редактировалось 19 раз(а)

28-11-2019 20:33  

Отключить всю рекламу на сайте

06-10-2014 21:50 Карпов 3 сезон 1-32 серии из 32 Скачать торрент  

залил в DVB классное качество
благодарим за релизpb.wtf



06-10-2014 21:51 Карпов 3 сезон 1-32 серии из 32 Скачать торрент  

сериал достоин золотаpb.wtf



06-10-2014 22:17 Карпов 3 сезон 1-32 серии из 32 Скачать торрент  

крутякpb.wtf



07-10-2014 20:29 Карпов 3 сезон 1-32 серии из 32 Скачать торрент  

ДОБАВЛЕНА 31-32 СЕРИЯ ПЕРЕЗАЛЕЙТЕ ТОРРЕНТ ФАИЛpb.wtf





Последний раз редактировалось: Бумер (2014-10-31 13:08), всего редактировалось 13 раз(а)

08-10-2014 13:24 Карпов 3 сезон 1-32 серии из 32 Скачать торрент  

Это жесточайшая жееесть!! Супер!!+pb.wtf



15-10-2014 17:45 Карпов 3 сезон 1-32 серии из 32 Скачать торрент  

Хорошее качество, лучше чем у других релизеров.pb.wtf



15-10-2014 19:50 Карпов 3 сезон 1-32 серии из 32 Скачать торрент  

2-й сезон досматриваю.. yespb.wtf



27-10-2014 18:10 Карпов 3 сезон 1-32 серии из 32 Скачать торрент  

Почему новые серии не залили???pb.wtf



09-10-2016 23:15 Карпов 3 сезон 1-32 серии из 32 Скачать торрент  

Дайте срочно скачать скоро на работу ехать !! ! !pb.wtf



    Дорогой пользователь! Огромная просьба, поблагодарите релизера, оцените раздачу и оставьте свои комментарий, если Вы скачали Карпов 3 сезон 1-32 серии из 32 через торрент бесплатно! Внесите свою лепту в развитие PiratBit!
    Комментировать посты могут только пользователи прошедшие не сложную регистрацию
    Показать сообщения:    

    Карпов 3 сезон 1-32 серии из 32 через торрент
    Скачать бесплатно Карпов 3 сезон 1-32 серии из 32
    Карпов 3 сезон 1-32 серии из 32 скачать торрент
    Карпов 3 сезон 1-32 серии из 32 смотреть онлайн
    Cкачать фильм Карпов 3 сезон 1-32 серии из 32 бесплатно
    Карпов 3 сезон 1-32 серии из 32 скачать торрент в хорошем качестве
    Карпов 3 сезон 1-32 серии из 32 смотреть онлайн бесплатно в хорошем качестве


    Вы не можете начинать темы
    Вы не можете отвечать на сообщения
    Вы не можете редактировать свои сообщения
    Вы не можете удалять свои сообщения
    Вы не можете голосовать в опросах
    Вы не можете прикреплять файлы к сообщениям
    Вы можете скачивать файлы