новый адрес
Мега распродажа FORZA HORIZON 4 ULTIMATE+ВСЕ DLC+ОНЛАЙН всего за 499р. 349 руб. (супер цена). Внимание количество ограничено!!!

iTunes

1+1

iTunes

мы

iTunes

1

iTunes

Чернобыль

iTunes

Ральф против интернета

Лицензия

ПШазам

Лицензия

Оно 2

Лицензия

30
pack

ВАЖНО

!!Акция!!

Alien_RageХит недели

RePack

Resident Evil 21

ИГРА 18+

pack

RePack

jed

!!Акция!!

Alien_Rage

RePack

fifa19

RePack

Assassins Creed: Odyssey

RePack

NEED FOR SPEED™ PAYBACK

3 сезон

9 сезон

Бесстыжие 9 сезон

Все сериалы

все сериалы на PB.wtf

RePack

FAR CRY 5
Ребята, катастрофически не хватает 1900р. для оплаты серверов за Октябрь (всвязи с блокировками трафик упал в 3 раза), 1-2р., выручайте.
  

Кости / Bones / Сезон: 10 / Серии 1-22 из 22 [ 2014 , США , драма, мелодрама, комедия, криминал, детектив WEB-DLRip] MVO (BaibaKo) pb.wtf

Кости через торрент pb.wtf

Размер: 12.75 GB | Добавлен: 4 года 4 мес. назад | Торрент скачан:354 раза
Скачать  

07-10-2014 01:18 Кости Скачать торрент  

Кости / Bones
«Чтобы Распутать Убийство, Вы Должны Раздеть Его До Костей»


  • Год выпуска: 2014
  • Страна: США
  • Жанр: драма, мелодрама, комедия, криминал, детектив
  • Продолжительность: 00:43:54
  • Перевод: Профессиональный многоголосый закадровый [BaibaKo]

  • В ролях:

    Эмили Дешанель (Dr. Temperance «Bones» Brennan), Дэвид Бореаназ (Special Agent Seeley Booth), Микаэла Конлин (Angela Montenegro), Ти-Джей Тайн (Dr. Jack Hodgins), Тамара Тейлор (Dr. Camille Saroyan), Джон Фрэнсис Дейли (Dr. Lance Sweets), Эрик Миллеган (Zack Addy), Патриция Белчер (Caroline Julian), Майкл Терри (Wendell Bray), Юджин Бирд (Dr. Clark Edison), Джонатан Адамс (Dr. Daniel Goodman), Карла Галло (Daisy Wick)

  • Описание:
    Доктор Темперанс Бреннан - блестящий, но одинокий антрополог, получает то, чего она меньше всего желала - напарника. Бюро посылает ей амбициозного агента ФБР Сили Бута, чтобы помочь в расследовании нераскрытых дел, путем изучения и идентификации костей давно пропавших людей.
    Но давно умершие жертвы не единственное, с чем придется столкнуться Боунс, Буту и их команде, раскрывая преступления, они часто сталкиваются с взяточничеством, коррупцией и местной разрозненностью.
  • Рейтинг:



  • Качество: WEB-DLRip
  • Формат: :AVI
  • Видео кодек: XviD
  • Аудио кодек: MP3
  • Видео: 720x400 (16:9), 1507 kbps, 23,976 fps, 0,218 bpp
  • Аудио №1: Русский 2.0 / 48 kHz / 192 kbps
  • Аудио №2: Английский 2.0 / 48 kHz / 192 kbps
  • Релиз от: GEKADOL

    Код:

    Внимание! Раздача ведётся путём добавления новых серий; при каждом добавлении создаётся новый торрент. Чтобы начать докачку новой серии, пользователям необходимо сделать следующее:
    (1) остановить скачивание,
    (2) удалить старый торрент у себя из клиента (старые серии удалять не надо),
    (3) скачать новый торрент и запустить его у себя в клиенте вместо старого, при этом указать клиенту путь в старую папку куда и должно происходить скачивание новых серий.
    Ваш клиент при этом должен произвести хеширование (проверку) старой папки (если не производит сам - помогите ему сделать это), и будет докачивать только те серии которых у вас ещё нет. Старые серии при этом не удаляются, а продолжают раздаваться!
    Eсли вы уже удалили старые серии, то предотвратить повторную закачку старых серий можно, отжав галочку в соответсвующих местах при запуске нового торрента. По возможности, желательно не удалять старые серии как можно дольше чтобы релизёр не столько продолжал раздавать старые серии, а смог сконцентрироваться на новых.


    Код:

    General
    Complete name                            : I:\Bones (s10)\Bones.s10e02.WEB-DLRip.XviD.Rus.Eng.BaibaKo.tv.avi
    Format                                   : AVI
    Format/Info                              : Audio Video Interleave
    File size                                : 599 MiB
    Duration                                 : 43mn 54s
    Overall bit rate                         : 1 906 Kbps
    Writing application                      : VirtualDubMod 1.5.10.2 (build 2540/release)
    Writing library                          : VirtualDubMod build 2540/release

    Video
    ID                                       : 0
    Format                                   : MPEG-4 Visual
    Format profile                           : Advanced Simple@L5
    Format settings, BVOP                    : 2
    Format settings, QPel                    : No
    Format settings, GMC                     : No warppoints
    Format settings, Matrix                  : Default (H.263)
    Codec ID                                 : XVID
    Codec ID/Hint                            : XviD
    Duration                                 : 43mn 54s
    Bit rate                                 : 1 508 Kbps
    Width                                    : 720 pixels
    Height                                   : 400 pixels
    Display aspect ratio                     : 16:9
    Frame rate                               : 23.976 fps
    Color space                              : YUV
    Chroma subsampling                       : 4:2:0
    Bit depth                                : 8 bits
    Scan type                                : Progressive
    Compression mode                         : Lossy
    Bits/(Pixel*Frame)                       : 0.218
    Stream size                              : 474 MiB (79%)
    Writing library                          : XviD 1.2.1 (UTC 2008-12-04)

    Audio #1
    ID                                       : 1
    Format                                   : MPEG Audio
    Format version                           : Version 1
    Format profile                           : Layer 3
    Mode                                     : Joint stereo
    Mode extension                           : MS Stereo
    Codec ID                                 : 55
    Codec ID/Hint                            : MP3
    Duration                                 : 43mn 54s
    Bit rate mode                            : Constant
    Bit rate                                 : 192 Kbps
    Channel(s)                               : 2 channels
    Sampling rate                            : 48.0 KHz
    Compression mode                         : Lossy
    Stream size                              : 60.3 MiB (10%)
    Alignment                                : Aligned on interleaves
    Interleave, duration                     : 42 ms (1.00 video frame)
    Interleave, preload duration             : 504 ms
    Writing library                          : LAME3.99.5

    Audio #2
    ID                                       : 2
    Format                                   : MPEG Audio
    Format version                           : Version 1
    Format profile                           : Layer 3
    Mode                                     : Joint stereo
    Mode extension                           : MS Stereo
    Codec ID                                 : 55
    Codec ID/Hint                            : MP3
    Duration                                 : 43mn 54s
    Bit rate mode                            : Constant
    Bit rate                                 : 192 Kbps
    Channel(s)                               : 2 channels
    Sampling rate                            : 48.0 KHz
    Compression mode                         : Lossy
    Stream size                              : 60.3 MiB (10%)
    Alignment                                : Aligned on interleaves
    Interleave, duration                     : 42 ms (1.00 video frame)
    Interleave, preload duration             : 504 ms


    Скриншоты:
    скриншот   скриншот   скриншот   скриншот   скриншот  
    скриншот  

    Раздача ведётся путём добавления новых серий. Добавлена 22 серия (12.07.2015).Просьба перекачать торрент файл.

    pb.wtf



  • Скачать Кости через торрент http://i66.fastpic.ru/big/2014/1007/d4/07493ecc35732ca2b49f9b5bbe764dd4.jpg Скачать фильм Кости через торрент бесплантно в хорошем качестве Описание: Доктор Темперанс Бреннан - блестящий, но одинокий антрополог, получает то, чего она меньше всего желала - напарника. Бюро ... 9.7 10 18
    Info! Золотая раздача, скачанное не засчитывается.
    Торрент: Зарегистрирован [2015-07-12 01:27] · скачан: 354 раз
    Статус: √ проверено
    Размер: 12.75 GB
    Как cкачать? Как скачать Кости через торрент | qTorrent

    % Раздел Тема Автор DL S | L
    Кости [ 31.96 GB ] Кости / Bones / Сезон: 10 / Серии 1-22 из 22 [ 2014 WEB-DL 720p] MVO GEKADOL Скачать
    1 | 0


    Последний раз редактировалось: GEKADOL (2015-07-12 01:27), всего редактировалось 11 раз(а)


    >> Регистрируемся здесь <<






    Отзывы и комментарии о схеме читаем и пишем здесь: ---> Отзывы и комментарии о схеме

    Новые благодарочки в телеграм довольных пользователей:
    скриншот   скриншот   скриншот   скриншот   скриншот

    09-01-2015 17:35 Кости Скачать торрент  

    Год выпуска: 200 sarcasticpb.wtf



    10-02-2015 13:52 Кости Скачать торрент  

    Год выпуска: 200 roflpb.wtf



    03-05-2015 07:39 Кости Скачать торрент  

    XOXOL_KZ писал(а):

    Год выпуска: 200 sarcastic

    Drarkduck писал(а):

    Год выпуска: 200 rofl

    Критики, смотрю, вы много релизов залили, чтоб над ошибками других "РЖАТЬ"...pb.wtf



    09-05-2015 02:51 Кости Скачать торрент  

    Newton5 писал(а):

    XOXOL_KZ писал(а):

    Год выпуска: 200 sarcastic

    Drarkduck писал(а):

    Год выпуска: 200 rofl

    Критики, смотрю, вы много релизов залили, чтоб над ошибками других "РЖАТЬ"...

    Спасибо!!!pb.wtf



    04-06-2015 11:00 Кости Скачать торрент  

    есть сезоны с 1-7 , не уверен, что нужно выложить. что скажете?pb.wtf



    01-07-2015 10:08 Кости Скачать торрент  

    20 серия когда?pb.wtf



      Дорогой пользователь! Огромная просьба, поблагодарите релизера, оцените раздачу и оставьте свои комментарий, если Вы скачали Кости через торрент бесплатно! Внесите свою лепту в развитие PiratBit!
      Комментировать посты могут только пользователи прошедшие не сложную регистрацию
      Показать сообщения:    

      Кости через торрент
      Скачать бесплатно Кости
      Кости скачать торрент
      Кости смотреть онлайн
      Cкачать фильм Кости бесплатно
      Кости скачать торрент в хорошем качестве
      Кости смотреть онлайн бесплатно в хорошем качестве


      Вы не можете начинать темы
      Вы не можете отвечать на сообщения
      Вы не можете редактировать свои сообщения
      Вы не можете удалять свои сообщения
      Вы не можете голосовать в опросах
      Вы не можете прикреплять файлы к сообщениям
      Вы можете скачивать файлы