Ссылка на приватное зеркало нашего сайта всего за 1$. Внимание количество ограничено!!!

2 сезон

iTunes

1 сезон

1

2 сезон

2 сезон

iTunes

1 сезон

RePack

30

Ultimate

ВАЖНО

ИГРА 18+

pack

RePack

MK11
pack

Забери бонус

RePack

jed

!!Акция!!

Alien_Rage

RePack

fifa19

RePack

Assassins Creed: Odyssey

RePack

NEED FOR SPEED™ PAYBACK

4 сезон

9 сезон

Бесстыжие 9 сезон

Все сериалы

все сериалы на PB.wtf

RePack

FAR CRY 5
  

Воскрешение / Resurrection / Сезон: 2 / Серии 1-13 из 13 (Дэниэл Эттиэс / Daniel Attias, Крис Мисиано / Chris Misiano, Рон Андервуд / Ron Underwood) [2014, США, фэнтези, драма, WEB-DLRip] MVO [NewStudio] pb.wtf

Воскрешение через торрент pb.wtf

Размер: 6.98 GB | Добавлен: 5 лет 10 мес. назад | Торрент скачан:107 раз
Скачать  

07-10-2014 03:19 Воскрешение Скачать торрент  

Воскрешение / Resurrection
«Что, если кто-то кого Вы потеряли..., вернулся?»


  • Год выпуска: 2014
  • Страна: США
  • Жанр: фэнтези, драма

  • Продолжительность: 00:43:18 (Серия)
  • Перевод: Профессиональный многоголосый закадровый [NewStudio]

  • Режиссер: Дэниэл Эттиэс / Daniel Attias, Крис Мисиано / Chris Misiano, Рон Андервуд / Ron Underwood
  • В ролях:

    Лэндон Хименес (Jacob Langston), Омар Эппс (J. Martin Bellamy), Мэтт Крэвен (Fred Langston), Девин Келли (Maggie Langston), Марк Хилдрет (Pastor Tom Hale), Кертвуд Смит (Henry Langston), Фрэнсис Фишер (Lucille Langston), Самира Армстронг (Elaine Richards), Сэм Хэзелдайн (Caleb Richards), Кэтлин Манро (Rachael Braidwood), Лори Бет Сайкс (Janine Hale), Трэвис Янг (Ray Richards)

  • Описание:
    Люди, живущие в маленьком городке сталкиваются с очень необычным явлением: их родные и близкие вновь возвращаются после своей смерти. Среди таких возвратившихся оказывается и маленький восьмилетний мальчик, который утонул еще три десятка лет назад. Его обнаружили в Китае, после чего иммиграционная служба вернула его домой. Каково же было удивление местного шерифа, жена которого утонула. Именно ее и пытался спасти этот самый мальчик. В чем же кроется отгадка этой мистической истории?
  • Рейтинг:



  • Качество: WEB-DLRip
  • Формат: :AVI
  • Видео кодек: XviD
  • Аудио кодек: MP3
  • Видео: 720x400 (16:9), 1505 kbps, 23,976 fps, 0,218 bpp
  • Аудио №1: Русский 2.0 / 48 kHz / 128 kbps /
  • Аудио №2: Английский 2.0 / 48 kHz / 128 kbps /
  • Релиз от: GEKADOL

    Код:

    Внимание! Раздача ведётся путём добавления новых серий; при каждом добавлении создаётся новый торрент. Чтобы начать докачку новой серии, пользователям необходимо сделать следующее:
    (1) остановить скачивание,
    (2) удалить старый торрент у себя из клиента (старые серии удалять не надо),
    (3) скачать новый торрент и запустить его у себя в клиенте вместо старого, при этом указать клиенту путь в старую папку куда и должно происходить скачивание новых серий.
    Ваш клиент при этом должен произвести хеширование (проверку) старой папки (если не производит сам - помогите ему сделать это), и будет докачивать только те серии которых у вас ещё нет. Старые серии при этом не удаляются, а продолжают раздаваться!
    Eсли вы уже удалили старые серии, то предотвратить повторную закачку старых серий можно, отжав галочку в соответсвующих местах при запуске нового торрента. По возможности, желательно не удалять старые серии как можно дольше чтобы релизёр не столько продолжал раздавать старые серии, а смог сконцентрироваться на новых.


    Код:

    Общее
    Полное имя                               : D:\Фильмы\Воскрешение (S02) NS\Resurrection.S02E02.WEBDLRip.NewStudio.TV.avi
    Формат                                   : AVI
    Формат/Информация                        : Audio Video Interleave
    Размер файла                             : 550 Мбайт
    Продолжительность                        : 43 м.
    Общий поток                              : 1775 Кбит/сек
    Программа кодирования                    : VirtualDubMod 1.5.10.2 (build 2540/release)
    Библиотека кодирования                   : VirtualDubMod build 2540/release

    Видео
    Идентификатор                            : 0
    Формат                                   : MPEG-4 Visual
    Профиль формата                          : Advanced Simple@L5
    Параметр BVOP формата                    : Нет
    Параметр QPel формата                    : Нет
    Параметр GMC формата                     : Без точки перехода
    Параметр матрицы формата                 : Default (H.263)
    Идентификатор кодека                     : XVID
    Идентификатор кодека/Подсказка           : XviD
    Продолжительность                        : 43 м.
    Битрейт                                  : 1505 Кбит/сек
    Ширина                                   : 720 пикселей
    Высота                                   : 400 пикселей
    Соотношение сторон                       : 16:9
    Частота кадров                           : 23,976 кадра/сек
    Цветовое пространство                    : YUV
    Субдискретизация насыщенности            : 4:2:0
    Битовая глубина                          : 8 бит
    Тип развёртки                            : Прогрессивная
    Метод сжатия                             : С потерями
    Бит/(Пиксели*Кадры)                      : 0.218
    Размер потока                            : 466 Мбайт (85%)
    Библиотека кодирования                   : XviD 1.2.1 (UTC 2008-12-04)

    Аудио #1
    Идентификатор                            : 1
    Формат                                   : MPEG Audio
    Версия формата                           : Version 1
    Профиль формата                          : Layer 3
    Режим                                    : Joint stereo
    Расширение режима                        : MS Stereo
    Идентификатор кодека                     : 55
    Идентификатор кодека/Подсказка           : MP3
    Продолжительность                        : 43 м.
    Вид битрейта                             : Постоянный
    Битрейт                                  : 128 Кбит/сек
    Каналы                                   : 2 канала
    Частота                                  : 48,0 КГц
    Метод сжатия                             : С потерями
    Размер потока                            : 39,7 Мбайт (7%)
    Выравнивание                             : Соединение по промежуткам
    Продолжительность промежутка             : 42  мс. (1,00 видеокадр)
    Время предзагрузки промежутка            : 504  мс.

    Аудио #2
    Идентификатор                            : 2
    Формат                                   : MPEG Audio
    Версия формата                           : Version 1
    Профиль формата                          : Layer 3
    Режим                                    : Joint stereo
    Идентификатор кодека                     : 55
    Идентификатор кодека/Подсказка           : MP3
    Продолжительность                        : 43 м.
    Вид битрейта                             : Постоянный
    Битрейт                                  : 128 Кбит/сек
    Каналы                                   : 2 канала
    Частота                                  : 48,0 КГц
    Метод сжатия                             : С потерями
    Размер потока                            : 39,7 Мбайт (7%)
    Выравнивание                             : Соединение по промежуткам
    Продолжительность промежутка             : 42  мс. (1,00 видеокадр)
    Время предзагрузки промежутка            : 504  мс.


    Скриншоты:
    скриншот   скриншот   скриншот   скриншот   скриншот  
    скриншот  

    Раздача ведётся путём добавления новых серий. Добавлена 13 серия (28.01.2015).Просьба перекачать торрент файл.

    pb.wtf



  • Скачать Воскрешение через торрент http://i63.fastpic.ru/big/2014/1007/43/82be25970afa9298e45b55bb48b69143.jpg Скачать фильм Воскрешение через торрент бесплантно в хорошем качестве Описание: Люди, живущие в маленьком городке сталкиваются с очень необычным явлением: их родные и близкие вновь возвращаются после своей ... 9.9 10 10
    Info! Золотая раздача, скачанное не засчитывается.
    Торрент: Зарегистрирован [2015-01-28 01:28] · скачан: 107 раз
    Статус: √ проверено
    Размер: 6.98 GB
    Как cкачать? Как скачать Воскрешение через торрент | qTorrent

    % Раздел Тема Автор DL S | L
    Зарубежные сериалы [ 18.56 GB ] Воскрешение / Resurrection / Сезон: 2 / Серии 1-13 из 13 [2014 WEB-DL 720p] MVO [NewStudio] GEKADOL Скачать
    1 | 0


    Последний раз редактировалось: GEKADOL (2015-01-28 01:28), всего редактировалось 9 раз(а)

    28-11-2019 20:33  

    Отключить всю рекламу на сайте

    23-10-2014 06:53 Воскрешение Скачать торрент  

    спасиииииибо, я так ждал!!! жаль качество только не очень, а так огромное спасибо! pb.wtf



    09-12-2014 06:50 Воскрешение Скачать торрент  

    2525dima2525 писал(а):

    какие все любезные взяли ответили,спасибо добрые люди!!!

    ИМХО, по описанию ясно, что сюжет разбавлен на весь сериал "соплями".pb.wtf



    26-12-2014 17:07 Воскрешение Скачать торрент  

    Спойлер бы не помешал.pb.wtf



      Дорогой пользователь! Огромная просьба, поблагодарите релизера, оцените раздачу и оставьте свои комментарий, если Вы скачали Воскрешение через торрент бесплатно! Внесите свою лепту в развитие PiratBit!
      Комментировать посты могут только пользователи прошедшие не сложную регистрацию
      Показать сообщения:    

      Воскрешение через торрент
      Скачать бесплатно Воскрешение
      Воскрешение скачать торрент
      Воскрешение смотреть онлайн
      Cкачать фильм Воскрешение бесплатно
      Воскрешение скачать торрент в хорошем качестве
      Воскрешение смотреть онлайн бесплатно в хорошем качестве


      Вы не можете начинать темы
      Вы не можете отвечать на сообщения
      Вы не можете редактировать свои сообщения
      Вы не можете удалять свои сообщения
      Вы не можете голосовать в опросах
      Вы не можете прикреплять файлы к сообщениям
      Вы можете скачивать файлы