Ссылка на приватное зеркало нашего сайта всего за 1$. Внимание количество ограничено!!!

2 сезон

iTunes

1 сезон

1

iTunes

iTunes

iTunes

1 сезон

RePack

30

ИГРА 18+

pack

ВАЖНО

!!Акция!!

Alien_RageХит недели

RePack

MK11
pack

Забери бонус

RePack

jed

!!Акция!!

Alien_Rage

RePack

fifa19

RePack

Assassins Creed: Odyssey

RePack

NEED FOR SPEED™ PAYBACK

4 сезон

9 сезон

Бесстыжие 9 сезон

Все сериалы

все сериалы на PB.wtf

RePack

FAR CRY 5
  

Красотка / Pretty Woman (Гэрри Маршалл) [1990, Мелодрама, комедия, BDRip 1080p] DUB, DVO, AVO, VO pb.wtf

Красотка через торрент pb.wtf

Размер: 16.98 GB | Добавлен: 6 лет назад | Торрент скачан:85 раз
Скачать  

07-10-2014 10:53 Красотка Скачать торрент  

Красотка / Pretty Woman

Год выпуска: 1990
Страна: США
Жанр: Мелодрама, комедия
Продолжительность: 01:59:45
Перевод: Дублированный, профессиональный двухголосый, авторский, одноголосый закадровый
Субтитры: русские, английские (все отдельно)

Режиссёр: Гэрри Маршалл

В ролях: Ричард Гир, Джулия Робертс, Ральф Беллами, Джейсон Александер, Лора Сан Джакомо, Алекс Хайд-Вайт, Эми Ясбек, Элинор Донахью, Гектор Элизондо, Джудит Болдуин, Джейсон Рендал, Билл Эпплбаум, Трэйси Бьорк, Гари Грин, Билли Галло, Абдул Салаам Эль Раззас, Хэнк Азария, Ларри Хэнкин

Описание: Финансовый магнат Эдвард Льюис, проезжая по ночному городу, останавливается около красивой женщины. Её зовут Вивьен, и она берёт только наличными. Наутро он понимает, что не хочет расставаться с ней и предлагает девушке остаться в его номере в отеле ещё на некоторое время за дополнительный гонорар.Вивьен оказывается в море блеска и лжи. Она терпит небрежное отношение к ней ради понравившегося мужчины, который перестал быть для неё просто клиентом...



Качество: BDRip 1080p Сравнение с исходником
Формат: MKV
Видео кодек: H.264
Аудио кодек: AC3, DTS
Видео: 1920x1040, 15.2 Mbps, 23.976 кадра/с, 0.317 bpp
Аудио 1: русский, AC3, 640 kbps, 6 ch, 48 kHz [дублированный, студия Нева, СЕЕ]
Аудио 2: русский, AC3, 448 kbps, 6 ch, 48 kHz [профессиональный двухголосый, OPT]
Аудио 3: русский, AC3, 384 kbps, 6 ch, 48 kHz [авторский, Андрей Гаврилов]
Аудио 4: русский, AC3, 384 kbps, 6 ch, 48 kHz [авторский, Алексей Михалёв]

Отдельные файлы
Аудио: русский, AC3, 192 kbps, 2 ch, 48 kHz [дублированный, OPT]
Аудио: русский, AC3, 192 kbps, 2 ch, 48 kHz [Профессиональный двухголосый, Видеосервис]
Аудио: русский, AC3, 192 kbps, 2 ch, 48 kHz [авторский, ВасилийГорчаков]
Аудио: русский, AC3, 192 kbps, 2 ch, 48 kHz [авторский, Сергей Визгунов]
Аудио: русский, AC3, 448 kbps, 6 ch, 48 kHz [одноголосый закадровый, вариант 1]
Аудио: русский, AC3, 192 kbps, 2 ch, 48 kHz [одноголосый закадровый, вариант 2]
Аудио: английский, DTS, 1509 kbps, 6 ch, 48 kHz [оригинал]

Имеются поименованные главы/чаптеры.

Автор рипа msltel
Оскар, 1991 год
Номинации (1):
Лучшая женская роль (Джулия Робертс)

Золотой глобус, 1991 год
Победитель (1):
Лучшая женская роль (комедия или мюзикл) (Джулия Робертс)

Номинации (3):
Лучший фильм (комедия или мюзикл)
Лучшая мужская роль (комедия или мюзикл) (Ричард Гир)
Лучшая мужская роль второго плана (Гектор Элизондо)

Британская академия, 1991 год
Номинации (4):
Лучший фильм
Лучшая женская роль (Джулия Робертс)
Лучший оригинальный сценарий
Лучшие костюмы

Сезар, 1991 год
Номинации (1):
Лучший фильм на иностранном языке
frame I:1170 Avg QP:17.08 size:207925
frame P:33085 Avg QP:17.99 size:126665
frame B:137821 Avg QP:20.29 size: 69015

Общее
Полное имя : D:VideoKrasotka.1990.BDRip.1080pKrasotka.1990.AVO.rus.В.Горчаков.ac3
Формат : AC-3
Формат/Информация : Audio Coding 3
Размер файла : 164 Мбайт
Продолжительность : 1 ч. 59 м.
Режим общего битрейта : Постоянный
Общий поток : 192 Кбит/сек

Аудио
Формат : AC-3
Формат/Информация : Audio Coding 3
Расширение режима : CM (complete main)
Параметр Endianness формата : Big
Продолжительность : 1 ч. 59 м.
Вид битрейта : Постоянный
Битрейт : 192 Кбит/сек
Каналы : 2 канала
Расположение каналов : Front: L R
Частота : 48,0 КГц
Битовая глубина : 16 бит
Метод сжатия : С потерями
Размер потока : 164 Мбайт (100%)

Общее
Полное имя : D:VideoKrasotka.1990.BDRip.1080pKrasotka.1990.AVO.rus.С.Визгунов.ac3
Формат : AC-3
Формат/Информация : Audio Coding 3
Размер файла : 164 Мбайт
Продолжительность : 1 ч. 59 м.
Режим общего битрейта : Постоянный
Общий поток : 192 Кбит/сек

Аудио
Формат : AC-3
Формат/Информация : Audio Coding 3
Расширение режима : CM (complete main)
Параметр Endianness формата : Big
Продолжительность : 1 ч. 59 м.
Вид битрейта : Постоянный
Битрейт : 192 Кбит/сек
Каналы : 2 канала
Расположение каналов : Front: L R
Частота : 48,0 КГц
Битовая глубина : 16 бит
Метод сжатия : С потерями
Размер потока : 164 Мбайт (100%)

Общее
Уникальный идентификатор : 233672798253833011995915313955907411126 (0xAFCBBE727F29A581859C5A63535D9CB6)
Полное имя : D:VideoKrasotka.1990.BDRip.1080pKrasotka.1990.BDRip.1080p.mkv
Формат : Matroska
Версия формата : Version 4 / Version 2
Размер файла : 14,5 Гбайт
Продолжительность : 1 ч. 59 м.
Общий поток : 17,4 Мбит/сек
Дата кодирования : UTC 2014-10-07 08:31:47
Программа кодирования : mkvmerge v6.9.1 ('Blue Panther') 64bit built on Apr 18 2014 18:23:38
Библиотека кодирования : libebml v1.3.0 + libmatroska v1.4.1

Видео
Идентификатор : 1
Формат : AVC
Формат/Информация : Advanced Video Codec
Профиль формата : High@L4.1
Параметр CABAC формата : Да
Параметр ReFrames формата : 4 кадра
Идентификатор кодека : V_MPEG4/ISO/AVC
Продолжительность : 1 ч. 59 м.
Битрейт : 15,2 Мбит/сек
Ширина : 1920 пикселей
Высота : 1040 пикселей
Соотношение сторон : 1,85:1
Режим частоты кадров : Постоянный
Частота кадров : 23,976 кадра/сек
Цветовое пространство : YUV
Субдискретизация насыщенности : 4:2:0
Битовая глубина : 8 бит
Тип развёртки : Прогрессивная
Бит/(Пиксели*Кадры) : 0.317
Размер потока : 12,7 Гбайт (87%)
Заголовок : BDRip -- STarankov
Библиотека кодирования : x264 core 142 r2431 ac76440
Настройки программы : cabac=1 / ref=4 / deblock=1:-1:-1 / analyse=0x3:0x113 / me=umh / subme=10 / psy=1 / psy_rd=1.00:0.15 / mixed_ref=1 / me_range=32 / chroma_me=1 / trellis=2 / 8x8dct=1 / cqm=0 / deadzone=21,11 / fast_pskip=1 / chroma_qp_offset=-3 / threads=6 / lookahead_threads=1 / sliced_threads=0 / nr=0 / decimate=1 / interlaced=0 / bluray_compat=0 / constrained_intra=0 / bframes=8 / b_pyramid=2 / b_adapt=2 / b_bias=0 / direct=3 / weightb=1 / open_gop=0 / weightp=2 / keyint=230 / keyint_min=23 / scenecut=40 / intra_refresh=0 / rc_lookahead=40 / rc=crf / mbtree=0 / crf=18.3 / qcomp=0.60 / qpmin=0 / qpmax=69 / qpstep=4 / vbv_maxrate=40000 / vbv_bufsize=50000 / crf_max=0.0 / nal_hrd=none / filler=0 / ip_ratio=1.40 / pb_ratio=1.30 / aq=1:1.00
Язык : English
Default : Да
Forced : Нет

Аудио #1
Идентификатор : 2
Формат : AC-3
Формат/Информация : Audio Coding 3
Расширение режима : CM (complete main)
Параметр Endianness формата : Big
Идентификатор кодека : A_AC3
Продолжительность : 1 ч. 59 м.
Вид битрейта : Постоянный
Битрейт : 640 Кбит/сек
Каналы : 6 каналов
Расположение каналов : Front: L C R, Side: L R, LFE
Частота : 48,0 КГц
Битовая глубина : 16 бит
Метод сжатия : С потерями
Размер потока : 548 Мбайт (4%)
Заголовок : DUB (студия Нева, СЕЕ)
Язык : Russian
Default : Да
Forced : Нет

Аудио #2
Идентификатор : 3
Формат : AC-3
Формат/Информация : Audio Coding 3
Расширение режима : CM (complete main)
Параметр Endianness формата : Big
Идентификатор кодека : A_AC3
Продолжительность : 1 ч. 59 м.
Вид битрейта : Постоянный
Битрейт : 448 Кбит/сек
Каналы : 6 каналов
Расположение каналов : Front: L C R, Side: L R, LFE
Частота : 48,0 КГц
Битовая глубина : 16 бит
Метод сжатия : С потерями
Размер потока : 384 Мбайт (3%)
Заголовок : DVO (OPT)
Язык : Russian
Default : Нет
Forced : Нет

Аудио #3
Идентификатор : 4
Формат : AC-3
Формат/Информация : Audio Coding 3
Расширение режима : CM (complete main)
Параметр Endianness формата : Big
Идентификатор кодека : A_AC3
Продолжительность : 1 ч. 59 м.
Вид битрейта : Постоянный
Битрейт : 384 Кбит/сек
Каналы : 6 каналов
Расположение каналов : Front: L C R, Side: L R, LFE
Частота : 48,0 КГц
Битовая глубина : 16 бит
Метод сжатия : С потерями
Размер потока : 329 Мбайт (2%)
Заголовок : AVO (Андрей Гаврилов)
Язык : Russian
Default : Нет
Forced : Нет

Аудио #4
Идентификатор : 5
Формат : AC-3
Формат/Информация : Audio Coding 3
Расширение режима : CM (complete main)
Параметр Endianness формата : Big
Идентификатор кодека : A_AC3
Продолжительность : 1 ч. 59 м.
Вид битрейта : Постоянный
Битрейт : 384 Кбит/сек
Каналы : 6 каналов
Расположение каналов : Front: L C R, Side: L R, LFE
Частота : 48,0 КГц
Битовая глубина : 16 бит
Метод сжатия : С потерями
Размер потока : 329 Мбайт (2%)
Заголовок : AVO (Алексей Михалёв)
Язык : Russian
Default : Нет
Forced : Нет

Меню
00:00:00.000 : en:Opening Credits
00:09:26.399 : en:Lookin' For A Date?
00:13:39.235 : en:In The Driver's Seat
00:18:51.130 : en:The Penthouse
00:34:00.038 : en:A Business Proposition
00:41:51.968 : en:Trouble At The Hotel
00:44:46.684 : en:A Setback
00:49:52.031 : en:Working Dinner
00:54:50.078 : en:Love On A Piano
01:00:35.757 : en:Shopping Spree
01:08:36.487 : en:At The Polo Match
01:17:20.636 : en:Pillow Talk
01:21:09.323 : en:Dressed To The Nines
01:29:10.178 : en:Just Semantics
01:35:29.140 : en:A Change Of Interest
01:42:23.637 : en:Unpleasant Caller
01:48:39.596 : en:Back To Reality
01:52:34.456 : en:Princess Vivian
01:56:27.189 : en:End Credits

Общее
Полное имя : D:VideoKrasotka.1990.BDRip.1080pKrasotka.1990.DUB.rus.OPT.ac3
Формат : AC-3
Формат/Информация : Audio Coding 3
Размер файла : 164 Мбайт
Продолжительность : 1 ч. 59 м.
Режим общего битрейта : Постоянный
Общий поток : 192 Кбит/сек

Аудио
Формат : AC-3
Формат/Информация : Audio Coding 3
Расширение режима : CM (complete main)
Параметр Endianness формата : Big
Продолжительность : 1 ч. 59 м.
Вид битрейта : Постоянный
Битрейт : 192 Кбит/сек
Каналы : 2 канала
Расположение каналов : Front: L R
Частота : 48,0 КГц
Битовая глубина : 16 бит
Метод сжатия : С потерями
Размер потока : 164 Мбайт (100%)

Общее
Полное имя : D:VideoKrasotka.1990.BDRip.1080pKrasotka.1990.DVO.rus.Видеосервис.ac3
Формат : AC-3
Формат/Информация : Audio Coding 3
Размер файла : 164 Мбайт
Продолжительность : 1 ч. 59 м.
Режим общего битрейта : Постоянный
Общий поток : 192 Кбит/сек

Аудио
Формат : AC-3
Формат/Информация : Audio Coding 3
Расширение режима : CM (complete main)
Параметр Endianness формата : Big
Продолжительность : 1 ч. 59 м.
Вид битрейта : Постоянный
Битрейт : 192 Кбит/сек
Каналы : 2 канала
Расположение каналов : Front: L R
Частота : 48,0 КГц
Битовая глубина : 16 бит
Метод сжатия : С потерями
Размер потока : 164 Мбайт (100%)

Общее
Полное имя : D:VideoKrasotka.1990.BDRip.1080pKrasotka.1990.eng.srt
Формат : SubRip
Размер файла : 116 Кбайт

Текст
Формат : SubRip
Метод сжатия : Без потерь

Общее
Полное имя : D:VideoKrasotka.1990.BDRip.1080pKrasotka.1990.Original.eng.dts
Формат : DTS
Формат/Информация : Digital Theater Systems
Размер файла : 1,26 Гбайт
Продолжительность : 1 ч. 59 м.
Режим общего битрейта : Постоянный
Общий поток : 1509 Кбит/сек

Аудио
Формат : DTS
Формат/Информация : Digital Theater Systems
Режим : 16
Параметр Endianness формата : Big
Продолжительность : 1 ч. 59 м.
Вид битрейта : Постоянный
Битрейт : 1509 Кбит/сек
Каналы : 6 каналов
Расположение каналов : Front: L C R, Side: L R, LFE
Частота : 48,0 КГц
Битовая глубина : 16 бит
Метод сжатия : С потерями
Размер потока : 1,26 Гбайт (100%)

Общее
Полное имя : D:VideoKrasotka.1990.BDRip.1080pKrasotka.1990.rus.srt
Формат : SubRip
Размер файла : 143 Кбайт

Текст
Формат : SubRip
Метод сжатия : Без потерь

Общее
Полное имя : D:VideoKrasotka.1990.BDRip.1080pKrasotka.1990.VO1.rus.одноголосый закадровый.ac3
Формат : AC-3
Формат/Информация : Audio Coding 3
Размер файла : 384 Мбайт
Продолжительность : 1 ч. 59 м.
Режим общего битрейта : Постоянный
Общий поток : 448 Кбит/сек

Аудио
Формат : AC-3
Формат/Информация : Audio Coding 3
Расширение режима : CM (complete main)
Параметр Endianness формата : Big
Продолжительность : 1 ч. 59 м.
Вид битрейта : Постоянный
Битрейт : 448 Кбит/сек
Каналы : 6 каналов
Расположение каналов : Front: L C R, Side: L R, LFE
Частота : 48,0 КГц
Битовая глубина : 16 бит
Метод сжатия : С потерями
Размер потока : 384 Мбайт (100%)

Общее
Полное имя : D:VideoKrasotka.1990.BDRip.1080pKrasotka.1990.VO2.rus.одноголосый закадровый.ac3
Формат : AC-3
Формат/Информация : Audio Coding 3
Размер файла : 164 Мбайт
Продолжительность : 1 ч. 59 м.
Режим общего битрейта : Постоянный
Общий поток : 192 Кбит/сек

Аудио
Формат : AC-3
Формат/Информация : Audio Coding 3
Расширение режима : CM (complete main)
Параметр Endianness формата : Big
Продолжительность : 1 ч. 59 м.
Вид битрейта : Постоянный
Битрейт : 192 Кбит/сек
Каналы : 2 канала
Расположение каналов : Front: L R
Частота : 48,0 КГц
Битовая глубина : 16 бит
Метод сжатия : С потерями
Размер потока : 164 Мбайт (100%)
pb.wtf



Скачать Красотка через торрент http://i64.fastpic.ru/big/2014/1005/0e/4965bc632ba6441fb22f7aaf6473080e.jpg Скачать фильм Красотка через торрент бесплантно в хорошем качестве Описание: Финансовый магнат Эдвард Льюис, проезжая по ночному городу, останавливается около красивой женщины. Её зовут Вивьен, и она берёт ... 10 10 3
Info! Золотая раздача, скачанное не засчитывается.
Торрент: Зарегистрирован [2014-10-07 10:53] · скачан: 85 раз
Статус: √ проверено
Размер: 16.98 GB
Как cкачать? Как скачать Красотка через торрент | qTorrent

% Раздел Тема Автор DL S | L
Фильмы [HD 720p, 1080p] (Хороший звук DUB, MVO) [ 9.25 GB ] Красотка / Pretty Woman [1990 Мело BDRip 720p] DUB DVO AVO VO msltel Скачать
2 | 0

28-11-2019 20:33  

Отключить всю рекламу на сайте

    Дорогой пользователь! Огромная просьба, поблагодарите релизера, оцените раздачу и оставьте свои комментарий, если Вы скачали Красотка через торрент бесплатно! Внесите свою лепту в развитие PiratBit!
    Комментировать посты могут только пользователи прошедшие не сложную регистрацию
    Показать сообщения:    

    Красотка через торрент
    Скачать бесплатно Красотка
    Красотка скачать торрент
    Красотка смотреть онлайн
    Cкачать фильм Красотка бесплатно
    Красотка скачать торрент в хорошем качестве
    Красотка смотреть онлайн бесплатно в хорошем качестве


    Вы не можете начинать темы
    Вы не можете отвечать на сообщения
    Вы не можете редактировать свои сообщения
    Вы не можете удалять свои сообщения
    Вы не можете голосовать в опросах
    Вы не можете прикреплять файлы к сообщениям
    Вы можете скачивать файлы