Ссылка на приватное зеркало нашего сайта всего за 1$. Внимание количество ограничено!!!

2 сезон

iTunes

1 сезон

1

iTunes

iTunes

iTunes

1 сезон

RePack

30

ИГРА 18+

pack

ВАЖНО

!!Акция!!

Alien_RageХит недели

RePack

MK11
pack

Забери бонус

RePack

jed

!!Акция!!

Alien_Rage

RePack

fifa19

RePack

Assassins Creed: Odyssey

RePack

NEED FOR SPEED™ PAYBACK

4 сезон

9 сезон

Бесстыжие 9 сезон

Все сериалы

все сериалы на PB.wtf

RePack

FAR CRY 5
  

Сучья война / Сезон: 1 / Серии 1-8 из 8 (Николай Борц) [2014, Россия, Военный, драма, исторический, SATRip] pb.wtf

Сучья война через торрент pb.wtf

Размер: 4.45 GB | Добавлен: 6 лет назад | Торрент скачан:1218 раз
Скачать  

07-10-2014 11:36 Сучья война Скачать торрент  

Сучья война


  • Год выпуска: 2014
  • Страна: Россия
  • Жанр: Военный, драма, исторический
  • Продолжительность: 00:50:59 (Серия)
  • Перевод: Не требуется

  • Режиссер: Николай Борц
  • В ролях:
    Алексей Демидов, Карина Андоленко, Михаил Пшеничный, Полина Уварова, Василиса Немцова, Алеся Гузько, Агриппина Стеклова, Константин Юшкевич, Андрей Иванов (VI), Янина Исаичкина, Анастасия Привалова, Алика Котова

  • Описание:
    "Сучьей войной" называют безжалостное противостояние между тюремными заключенными которое длилось десять лет - с середины сороковых до середины пятидесятых годов прошлого столетия.Осужденные за уголовные преступления разделились на два противоборствующих лагеря. По одну сторону баррикад находились "воры в законе", которые привыкли жить "по понятиям" и ни при каких обстоятельствах не вступать в переговоры с представителями власти.А с другой стороны были "с у к и" - заключенные, которые раскаялись в совершении преступления, искренне хотели исправиться. Большинство "сук" во времена Великой Отечественной войны воевали на фронте. Со временем к "сукам" присоединились воры, которые по тем или иным причинам не желали жить "по блатным" законам...
  • Рейтинг:



  • Качество: SATRip
  • Формат: :MKV
  • Видео кодек: AVC
  • Аудио кодек: AC3
  • Видео: 704x400 (16:9), 1440 kbps, 25 fps, 0,205 bpp
  • Аудио: 2.0 / 48 kHz / 192 kbps / 16 bit
  • Релиз от: GEKADOL

    Код:

    Внимание! Раздача ведётся путём добавления новых серий; при каждом добавлении создаётся новый торрент. Чтобы начать докачку новой серии, пользователям необходимо сделать следующее:
    (1) остановить скачивание,
    (2) удалить старый торрент у себя из клиента (старые серии удалять не надо),
    (3) скачать новый торрент и запустить его у себя в клиенте вместо старого, при этом указать клиенту путь в старую папку куда и должно происходить скачивание новых серий.
    Ваш клиент при этом должен произвести хеширование (проверку) старой папки (если не производит сам - помогите ему сделать это), и будет докачивать только те серии которых у вас ещё нет. Старые серии при этом не удаляются, а продолжают раздаваться!
    Eсли вы уже удалили старые серии, то предотвратить повторную закачку старых серий можно, отжав галочку в соответсвующих местах при запуске нового торрента. По возможности, желательно не удалять старые серии как можно дольше чтобы релизёр не столько продолжал раздавать старые серии, а смог сконцентрироваться на новых.


    Код:

    General
    Unique ID                                : 252734236569184980381626935539625735654 (0xBE22D7EA3EB43D57F7DFB5EFF4C9B5E6)
    Complete name                            : I:\Сучья война\02 серия.mkv
    Format                                   : Matroska
    Format version                           : Version 2
    File size                                : 597 MiB
    Duration                                 : 50mn 59s
    Overall bit rate                         : 1 637 Kbps
    Writing application                      : HandBrake 0.9.9
    Writing library                          : libmkv 0.6.5

    Video
    ID                                       : 1
    Format                                   : AVC
    Format/Info                              : Advanced Video Codec
    Format profile                           : High@L4.1
    Format settings, CABAC                   : Yes
    Format settings, ReFrames                : 4 frames
    Codec ID                                 : V_MPEG4/ISO/AVC
    Duration                                 : 50mn 59s
    Bit rate                                 : 1 440 Kbps
    Width                                    : 704 pixels
    Height                                   : 400 pixels
    Display aspect ratio                     : 16:9
    Frame rate mode                          : Variable
    Frame rate                               : 25.000 fps
    Color space                              : YUV
    Chroma subsampling                       : 4:2:0
    Bit depth                                : 8 bits
    Scan type                                : Progressive
    Bits/(Pixel*Frame)                       : 0.205
    Stream size                              : 515 MiB (86%)
    Writing library                          : x264 core 130 r2273 b3065e6
    Encoding settings                        : cabac=1 / ref=3 / deblock=1:0:0 / analyse=0x3:0x113 / me=hex / subme=7 / psy=1 / psy_rd=1.00:0.00 / mixed_ref=1 / me_range=16 / chroma_me=1 / trellis=1 / 8x8dct=1 / cqm=0 / deadzone=21,11 / fast_pskip=1 / chroma_qp_offset=-2 / threads=6 / lookahead_threads=1 / sliced_threads=0 / nr=0 / decimate=1 / interlaced=0 / bluray_compat=0 / constrained_intra=0 / bframes=3 / b_pyramid=2 / b_adapt=1 / b_bias=0 / direct=1 / weightb=1 / open_gop=0 / weightp=2 / keyint=250 / keyint_min=25 / scenecut=40 / intra_refresh=0 / rc_lookahead=40 / rc=2pass / mbtree=1 / bitrate=1440 / ratetol=1.0 / qcomp=0.60 / qpmin=0 / qpmax=69 / qpstep=4 / cplxblur=20.0 / qblur=0.5 / vbv_maxrate=62500 / vbv_bufsize=78125 / nal_hrd=none / ip_ratio=1.40 / aq=1:1.00
    Language                                 : English
    Default                                  : Yes
    Forced                                   : No
    Color primaries                          : BT.470-6 System B, BT.470-6 System G, BT.601-6 625, BT.1358 625, BT.1700 625 PAL, BT.1700 625 SECAM
    Transfer characteristics                 : BT.709-5, BT.1361
    Matrix coefficients                      : BT.601-6 525, BT.1358 525, BT.1700 NTSC, SMPTE 170M

    Audio
    ID                                       : 2
    Format                                   : AC-3
    Format/Info                              : Audio Coding 3
    Mode extension                           : CM (complete main)
    Codec ID                                 : A_AC3
    Duration                                 : 50mn 59s
    Bit rate mode                            : Constant
    Bit rate                                 : 192 Kbps
    Channel(s)                               : 2 channels
    Channel positions                        : Front: L R
    Sampling rate                            : 48.0 KHz
    Bit depth                                : 16 bits
    Compression mode                         : Lossy
    Stream size                              : 70.0 MiB (12%)
    Default                                  : Yes
    Forced                                   : No


    Скриншоты:
    скриншот   скриншот   скриншот   скриншот   скриншот  

    Раздача ведётся путём добавления новых серий. Добавлена 8 серия (10.10.2014).Просьба перекачать торрент файл.

    pb.wtf



  • Скачать Сучья война через торрент http://i65.fastpic.ru/big/2014/1007/10/6b3d1d6a6630ccf0728fd3f635dc3410.jpg Скачать фильм Сучья война через торрент бесплантно в хорошем качестве Описание: "Сучьей войной" называют безжалостное противостояние между тюремными заключенными которое длилось десять лет - с середины ... 9.4 10 53
    Info! Золотая раздача, скачанное не засчитывается.
    Торрент: Зарегистрирован [2014-10-10 00:28] · скачан: 1 218 раз
    Статус: √ проверено
    Размер: 4.45 GB
    Как cкачать? Как скачать Сучья война через торрент | qTorrent

    % Раздел Тема Автор DL S | L
    Наши сериалы [ 13.89 GB ] Сучьи войны / Сучья война / Сезон: 1 / Серии: 1-8 из 8 [2014 Военный исторический WEB-DL 1080p] bober100 Скачать
    1 | 0
    Наши сериалы [ 5.47 GB ] Сучьи войны / Сучья война / Сезон: 1 / Серии: 1-8 из 8 [2014 Военный исторический WEB-DLRip] bober100 Скачать
    1 | 0


    Последний раз редактировалось: GEKADOL (2014-10-10 00:28), всего редактировалось 1 раз

    28-11-2019 20:33  

    Отключить всю рекламу на сайте

    09-10-2014 15:33 Сучья война Скачать торрент  

    Как фильмpb.wtf



    10-10-2014 07:12 Сучья война Скачать торрент  

    На работе пойдет время убить :clock:pb.wtf



    11-10-2014 07:19 Сучья война Скачать торрент  

    pb.wtf



    11-10-2014 07:22 Сучья война Скачать торрент  

    Кто смотрел отпишитесь, нравяться такие фильмыpb.wtf



    13-10-2014 06:17 Сучья война Скачать торрент  

    Сюжет вроде хороший,но немного затянуто.Можно было сделать динамичней. Серий,как я понял будет 24,а тут 8.Что опять по сезонам?pb.wtf



    24-10-2014 13:46 Сучья война Скачать торрент  

    Не плохой фильмец но чего то ему не хватает.Не знаю даже.
    Перед этим посмотрел фильм Любка вот это вот фильмец.pb.wtf



    12-12-2015 17:28 Сучья война Скачать торрент  

    Russian Mafia писал(а):

    Кто смотрел отпишитесь, нравяться такие фильмы

    Найдите фильм Ад или досье на самого себя...вот это фильмец..pb.wtf



    21-12-2015 11:40 Сучья война Скачать торрент  

    смотрибельно, если время убить, а так с трудом на троечкуpb.wtf



      Дорогой пользователь! Огромная просьба, поблагодарите релизера, оцените раздачу и оставьте свои комментарий, если Вы скачали Сучья война через торрент бесплатно! Внесите свою лепту в развитие PiratBit!
      Комментировать посты могут только пользователи прошедшие не сложную регистрацию
      Показать сообщения:    

      Сучья война через торрент
      Скачать бесплатно Сучья война
      Сучья война скачать торрент
      Сучья война смотреть онлайн
      Cкачать фильм Сучья война бесплатно
      Сучья война скачать торрент в хорошем качестве
      Сучья война смотреть онлайн бесплатно в хорошем качестве


      Вы не можете начинать темы
      Вы не можете отвечать на сообщения
      Вы не можете редактировать свои сообщения
      Вы не можете удалять свои сообщения
      Вы не можете голосовать в опросах
      Вы не можете прикреплять файлы к сообщениям
      Вы можете скачивать файлы