Ссылка на приватное зеркало нашего сайта всего за 1$. Внимание количество ограничено!!!

2 сезон

iTunes

1 сезон

1

iTunes

iTunes

iTunes

1 сезон

RePack

30

ИГРА 18+

pack

ВАЖНО

!!Акция!!

Alien_RageХит недели

RePack

MK11
pack

Забери бонус

RePack

jed

!!Акция!!

Alien_Rage

RePack

fifa19

RePack

Assassins Creed: Odyssey

RePack

NEED FOR SPEED™ PAYBACK

4 сезон

9 сезон

Бесстыжие 9 сезон

Все сериалы

все сериалы на PB.wtf

RePack

FAR CRY 5
  

Двойной удар / Double Impact (Шелдон Леттич) [1991, боевик, триллер, драма, криминал, BDRip 720p] DUB, MVO, AVO, VO pb.wtf

Двойной удар через торрент pb.wtf

Размер: 9.23 GB | Добавлен: 6 лет назад | Торрент скачан:38 раз
Скачать  

07-10-2014 12:52 Двойной удар Скачать торрент  

Двойной удар / Double Impact

Год выпуска: 1991
Страна: США
Жанр: боевик, триллер, драма, криминал
Продолжительность: 01:49:40
Перевод: дублированный, профессиональный многоголосый, авторский, одноголосый закадровый
Субтитры: русские, английские (для слабослышащих) (все отдельно)

Режиссёр: Шелдон Леттич

В ролях: Жан-Клод Ван Дамм, Джеффри Льюис, Алонна Шоу, Коринна Эверсон, Филип Чань, Алан Скарф, Боло Йенг, Энди Армстронг, Ву Фонг Ланг, Питер Малота, Сара-Джейн Варли, Камель Крифа, Юджин Чой, Джэк Гиларди мл., Дэвид Лиа, Донн Бердаль, Синг Чан, Джули Стрэйн, Гален Юэнь, Алисия Стивенсон, Кристофер Люн, Лео Ли, Нг Квоккай, Чоу Квок По, Ю Вэй Кеунг, Юк-Сан Чунг, Джон Шам, Ли Тат Чи, Ли Бинг Чи, Вонг Чи Кин, Джон Чунг, Цан Синг Квок, Пол Айлетт, Чинг Вэй Чунг, Дэвид Хо, Сара Юэнь, Чун То Тан, Эрик ЭнДжи, Сиу Ва Чан, Ивэн Лури, Роланд Лор, Дженнифер Стоун, Рита Лау, Вонг Чунг Чинг, Жорж Бедже, Мэттью Дж Кэйтс, Шелли Мишель

Описание: Когда-то мафия из Гонконга жестоко и безжалостно расправилась с родителями братьев-близнецов Чеда и Алекса, которых чудом удалось спасти в давней кровавой перестрелке. Судьба раскидала братьев по разные стороны океана: один рос в Калифорнии, другой остался в Гонконге. И вот, спустя 25 лет стараниями верного друга их погибших родителей два брата встречаются, чтобы заставить виновников того преступления сильно раскаяться в некогда содеянном.



Качество: BDRip 720p Сравнение с исходником
Формат: MKV
Видео кодек: H.264
Аудио кодек: AC3, DTS
Видео: 1280x696, 7229 kbps, 23.976 кадра/с, 0.338 bpp
Аудио 1: русский, AC3, 224 kbps, 2 ch, 48 kHz [дублированный, Хлопушка]
Аудио 2: русский, AC3, 448 kbps, 6 ch, 48 kHz [профессиональный многоголосый, OPT]
Аудио 3: русский, AC3, 192 kbps, 2 ch, 48 kHz [профессиональный многоголосый, R5]
Аудио 4: русский, AC3, 192 kbps, 2 ch, 48 kHz [профессиональный многоголосый, THT]
Аудио 5: русский, AC3, 192 kbps, 2 ch, 48 kHz [авторский, Андрей Гаврилов]

Отдельные файлы
Аудио: русский, DTS, 1509 kbps, 2 ch, 48 kHz [Профессиональный многоголосый, R5]
Аудио: русский, DTS, 1509 kbps, 2 ch, 48 kHz [авторский, Андрей Гаврилов]
Аудио: английский, AC3, 192 kbps, 2 ch, 48 kHz [оригинал]

Имеются неименованные главы/чаптеры.

Автор рипа msltel
Премия канала «MTV», 1992 год
Номинации (1):
Самый желанный мужчина (Жан-Клод Ван Дамм)
frame I:1461 Avg QP:18.43 size:125646
frame P:31741 Avg QP:19.34 size: 61648
frame B:124569 Avg QP:21.24 size: 31671

Общее
Полное имя : D:VideoDvojnoj udar.1991.BDRip.720pDvojnoj udar.1991.AVO.rus.А.Гаврилов.dts
Формат : DTS
Формат/Информация : Digital Theater Systems
Размер файла : 1,16 Гбайт
Продолжительность : 1 ч. 49 м.
Режим общего битрейта : Постоянный
Общий поток : 1509 Кбит/сек

Аудио
Формат : DTS
Формат/Информация : Digital Theater Systems
Режим : 16
Параметр Endianness формата : Big
Продолжительность : 1 ч. 49 м.
Вид битрейта : Постоянный
Битрейт : 1509 Кбит/сек
Каналы : 2 канала
Расположение каналов : Front: L R
Частота : 48,0 КГц
Битовая глубина : 24 бит
Метод сжатия : С потерями
Размер потока : 1,16 Гбайт

Общее
Уникальный идентификатор : 234980805579814524165612723975089668327 (0xB0C7A82FFCF2E1A9A847F5DDF989C0E7)
Полное имя : D:VideoDvojnoj udar.1991.BDRip.720pDvojnoj udar.1991.BDRip.720p.mkv
Формат : Matroska
Версия формата : Version 4 / Version 2
Размер файла : 6,63 Гбайт
Продолжительность : 1 ч. 49 м.
Общий поток : 8649 Кбит/сек
Дата кодирования : UTC 2014-10-06 17:38:45
Программа кодирования : mkvmerge v6.9.1 ('Blue Panther') 64bit built on Apr 18 2014 18:23:38
Библиотека кодирования : libebml v1.3.0 + libmatroska v1.4.1

Видео
Идентификатор : 1
Формат : AVC
Формат/Информация : Advanced Video Codec
Профиль формата : High@L4.1
Параметр CABAC формата : Да
Параметр ReFrames формата : 9 кадров
Идентификатор кодека : V_MPEG4/ISO/AVC
Продолжительность : 1 ч. 49 м.
Битрейт : 7229 Кбит/сек
Ширина : 1280 пикселей
Высота : 696 пикселей
Соотношение сторон : 1,85:1
Режим частоты кадров : Постоянный
Частота кадров : 23,976 кадра/сек
Цветовое пространство : YUV
Субдискретизация насыщенности : 4:2:0
Битовая глубина : 8 бит
Тип развёртки : Прогрессивная
Бит/(Пиксели*Кадры) : 0.338
Размер потока : 5,54 Гбайт (84%)
Заголовок : BDRip -- STarankov
Библиотека кодирования : x264 core 142 r2431 ac76440
Настройки программы : cabac=1 / ref=9 / deblock=1:-1:-1 / analyse=0x3:0x113 / me=umh / subme=10 / psy=1 / psy_rd=1.00:0.15 / mixed_ref=1 / me_range=32 / chroma_me=1 / trellis=2 / 8x8dct=1 / cqm=0 / deadzone=21,11 / fast_pskip=1 / chroma_qp_offset=-3 / threads=6 / lookahead_threads=1 / sliced_threads=0 / nr=0 / decimate=1 / interlaced=0 / bluray_compat=0 / constrained_intra=0 / bframes=8 / b_pyramid=2 / b_adapt=2 / b_bias=0 / direct=3 / weightb=1 / open_gop=0 / weightp=2 / keyint=230 / keyint_min=23 / scenecut=40 / intra_refresh=0 / rc_lookahead=40 / rc=crf / mbtree=0 / crf=19.3 / qcomp=0.60 / qpmin=0 / qpmax=69 / qpstep=4 / vbv_maxrate=40000 / vbv_bufsize=50000 / crf_max=0.0 / nal_hrd=none / filler=0 / ip_ratio=1.40 / pb_ratio=1.30 / aq=1:1.00
Язык : English
Default : Да
Forced : Нет

Аудио #1
Идентификатор : 2
Формат : AC-3
Формат/Информация : Audio Coding 3
Профиль формата : Dolby Digital
Расширение режима : CM (complete main)
Параметр Endianness формата : Big
Идентификатор кодека : A_AC3
Продолжительность : 1 ч. 49 м.
Вид битрейта : Постоянный
Битрейт : 224 Кбит/сек
Каналы : 2 канала
Расположение каналов : Front: L R
Частота : 48,0 КГц
Битовая глубина : 16 бит
Метод сжатия : С потерями
Размер потока : 176 Мбайт (3%)
Заголовок : DUB (Хлопушка)
Язык : Russian
Default : Да
Forced : Нет

Аудио #2
Идентификатор : 3
Формат : AC-3
Формат/Информация : Audio Coding 3
Расширение режима : CM (complete main)
Параметр Endianness формата : Big
Идентификатор кодека : A_AC3
Продолжительность : 1 ч. 49 м.
Вид битрейта : Постоянный
Битрейт : 448 Кбит/сек
Каналы : 6 каналов
Расположение каналов : Front: L C R, Side: L R, LFE
Частота : 48,0 КГц
Битовая глубина : 16 бит
Метод сжатия : С потерями
Размер потока : 351 Мбайт (5%)
Заголовок : MVO (OPT)
Язык : Russian
Default : Нет
Forced : Нет

Аудио #3
Идентификатор : 4
Формат : AC-3
Формат/Информация : Audio Coding 3
Расширение режима : CM (complete main)
Параметр Endianness формата : Big
Идентификатор кодека : A_AC3
Продолжительность : 1 ч. 49 м.
Вид битрейта : Постоянный
Битрейт : 192 Кбит/сек
Каналы : 2 канала
Расположение каналов : Front: L R
Частота : 48,0 КГц
Битовая глубина : 16 бит
Метод сжатия : С потерями
Размер потока : 151 Мбайт (2%)
Заголовок : MVO (R5)
Язык : Russian
Default : Нет
Forced : Нет

Аудио #4
Идентификатор : 5
Формат : AC-3
Формат/Информация : Audio Coding 3
Профиль формата : Dolby Digital
Расширение режима : CM (complete main)
Параметр Endianness формата : Big
Идентификатор кодека : A_AC3
Продолжительность : 1 ч. 49 м.
Вид битрейта : Постоянный
Битрейт : 192 Кбит/сек
Каналы : 2 канала
Расположение каналов : Front: L R
Частота : 48,0 КГц
Битовая глубина : 16 бит
Метод сжатия : С потерями
Размер потока : 151 Мбайт (2%)
Заголовок : MVO (THT)
Язык : Russian
Default : Нет
Forced : Нет

Аудио #5
Идентификатор : 6
Формат : AC-3
Формат/Информация : Audio Coding 3
Расширение режима : CM (complete main)
Параметр Endianness формата : Big
Идентификатор кодека : A_AC3
Продолжительность : 1 ч. 49 м.
Вид битрейта : Постоянный
Битрейт : 192 Кбит/сек
Каналы : 2 канала
Расположение каналов : Front: L R
Частота : 48,0 КГц
Битовая глубина : 16 бит
Метод сжатия : С потерями
Размер потока : 151 Мбайт (2%)
Заголовок : AVO (Андрей Гаврилов)
Язык : Russian
Default : Нет
Forced : Нет

Меню
00:00:00.000 : :Chapter 01
00:03:22.035 : :Chapter 02
00:09:45.334 : :Chapter 03
00:13:07.161 : :Chapter 04
00:21:00.050 : :Chapter 05
00:29:03.616 : :Chapter 06
00:37:33.251 : :Chapter 07
00:42:20.955 : :Chapter 08
00:50:04.376 : :Chapter 09
00:58:54.656 : :Chapter 10
01:07:32.131 : :Chapter 11
01:17:58.548 : :Chapter 12
01:23:50.066 : :Chapter 13
01:28:48.072 : :Chapter 14
01:34:14.398 : :Chapter 15
01:44:12.621 : :Chapter 16
01:49:40.323 : :Chapter 17

Общее
Полное имя : D:VideoDvojnoj udar.1991.BDRip.720pDvojnoj udar.1991.eng.SDH.srt
Формат : SubRip
Размер файла : 57,4 Кбайт

Текст
Формат : SubRip
Метод сжатия : Без потерь

Общее
Полное имя : D:VideoDvojnoj udar.1991.BDRip.720pDvojnoj udar.1991.MVO.rus.R5.dts
Формат : DTS
Формат/Информация : Digital Theater Systems
Размер файла : 1,16 Гбайт
Продолжительность : 1 ч. 49 м.
Режим общего битрейта : Постоянный
Общий поток : 1509 Кбит/сек

Аудио
Формат : DTS
Формат/Информация : Digital Theater Systems
Режим : 16
Параметр Endianness формата : Big
Продолжительность : 1 ч. 49 м.
Вид битрейта : Постоянный
Битрейт : 1509 Кбит/сек
Каналы : 2 канала
Расположение каналов : Front: L R
Частота : 48,0 КГц
Битовая глубина : 24 бит
Метод сжатия : С потерями
Размер потока : 1,16 Гбайт (100%)

Общее
Полное имя : D:VideoDvojnoj udar.1991.BDRip.720pDvojnoj udar.1991.Original.eng.ac3
Формат : AC-3
Формат/Информация : Audio Coding 3
Размер файла : 151 Мбайт
Продолжительность : 1 ч. 49 м.
Режим общего битрейта : Постоянный
Общий поток : 192 Кбит/сек

Аудио
Формат : AC-3
Формат/Информация : Audio Coding 3
Расширение режима : CM (complete main)
Параметр Endianness формата : Big
Продолжительность : 1 ч. 49 м.
Вид битрейта : Постоянный
Битрейт : 192 Кбит/сек
Каналы : 2 канала
Расположение каналов : Front: L R
Частота : 48,0 КГц
Битовая глубина : 16 бит
Метод сжатия : С потерями
Размер потока : 151 Мбайт (100%)

Общее
Полное имя : D:VideoDvojnoj udar.1991.BDRip.720pDvojnoj udar.1991.rus.srt
Формат : SubRip
Размер файла : 43,3 Кбайт

Текст
Формат : SubRip
Метод сжатия : Без потерь

Общее
Полное имя : D:VideoDvojnoj udar.1991.BDRip.720pDvojnoj udar.1991.VO.rus.одноголосый закадровый.ac3
Формат : AC-3
Формат/Информация : Audio Coding 3
Размер файла : 151 Мбайт
Продолжительность : 1 ч. 49 м.
Режим общего битрейта : Постоянный
Общий поток : 192 Кбит/сек

Аудио
Формат : AC-3
Формат/Информация : Audio Coding 3
Профиль формата : Dolby Digital
Расширение режима : CM (complete main)
Параметр Endianness формата : Big
Продолжительность : 1 ч. 49 м.
Вид битрейта : Постоянный
Битрейт : 192 Кбит/сек
Каналы : 2 канала
Расположение каналов : Front: L R
Частота : 48,0 КГц
Битовая глубина : 16 бит
Метод сжатия : С потерями
Размер потока : 151 Мбайт (100%)
pb.wtf



Скачать Двойной удар через торрент http://i68.fastpic.ru/big/2014/1007/00/d0e9ba8acf9a78719fda8d351fc18e00.jpg Скачать фильм Двойной удар через торрент бесплантно в хорошем качестве Описание: Когда-то мафия из а жестоко и безжалостно расправилась с родителями братьев-близнецов Чеда и Алекса, которых чудом удалось ... 10 10 6
Info! Золотая раздача, скачанное не засчитывается.
Торрент: Зарегистрирован [2014-10-07 12:52] · скачан: 38 раз
Статус: √ проверено
Размер: 9.23 GB
Как cкачать? Как скачать Двойной удар через торрент | qTorrent

% Раздел Тема Автор DL S | L
Фильмы [HD 720p, 1080p] (Хороший звук DUB, MVO) [ 17.51 GB ] Двойной удар / Double Impact [1991 BDRip 1080p] DUB MVO AVO VO msltel Скачать
1 | 0

28-11-2019 20:33  

Отключить всю рекламу на сайте

    Дорогой пользователь! Огромная просьба, поблагодарите релизера, оцените раздачу и оставьте свои комментарий, если Вы скачали Двойной удар через торрент бесплатно! Внесите свою лепту в развитие PiratBit!
    Комментировать посты могут только пользователи прошедшие не сложную регистрацию
    Показать сообщения:    

    Двойной удар через торрент
    Скачать бесплатно Двойной удар
    Двойной удар скачать торрент
    Двойной удар смотреть онлайн
    Cкачать фильм Двойной удар бесплатно
    Двойной удар скачать торрент в хорошем качестве
    Двойной удар смотреть онлайн бесплатно в хорошем качестве


    Вы не можете начинать темы
    Вы не можете отвечать на сообщения
    Вы не можете редактировать свои сообщения
    Вы не можете удалять свои сообщения
    Вы не можете голосовать в опросах
    Вы не можете прикреплять файлы к сообщениям
    Вы можете скачивать файлы