Ссылка на приватное зеркало всего за 1$. Внимание количество ограничено!!!

iTunes

iTunes

iTunes

1

iTunes

iTunes

iTunes

iTunes

iTunes

30
pack

$ от Little Big

ВАЖНО

!!Акция!!

Alien_RageХит недели

RePack

Resident Evil 21

ИГРА 18+

pack

RePack

jed

!!Акция!!

Alien_Rage

RePack

fifa19

RePack

Assassins Creed: Odyssey

RePack

NEED FOR SPEED™ PAYBACK

4 сезон

9 сезон

Бесстыжие 9 сезон

Все сериалы

все сериалы на PB.wtf

RePack

FAR CRY 5
  

Пробуждая мертвецов / Waking the Dead (Кит Гордон) [2000 г., триллер, драма, мелодрама, детектив, WEB-DL 720p, MVO, DVO] pb.wtf

Пробуждая мертвецов через торрент pb.wtf

Размер: 3.61 GB | Добавлен: 5 лет 9 мес. назад | Торрент скачан:36 раз
Скачать  

07-10-2014 15:10 Пробуждая мертвецов Скачать торрент  

Пробуждая мертвецов / Waking the Dead

Год выпуска: 2000
Страна: США, Канада
Жанр: триллер, драма, мелодрама, детектив
Продолжительность: 01:45:11
Перевод: Профессиональный многоголосый, Двухголосый закадровый
Субтитры: Russian (West Video), English

Режиссер: Кит Гордон
Продюссер: Кит Гордон, Стюарт Клейнман, Линда Рейсман
Сценарий: Роберт Диллон, Скотт Спенсер
Бюджет: $8 500 000
Премьера в мире: 22 января 2000

IMDB 6.70 (5514)


В ролях: Билли Крудап, Билл Хаугланд, Нельсон Ландрэ, Айвон Колл, Дженнифер Коннелли, Максин Гесс, Пол Хипп, Хэл Холбрук, Лоуренс Дэйн, Эд Харрис

Описание: Молодой офицер береговой охраны Филдинг Пирс встречает девушку своей мечты. Это была настоящая любовь, которая не должна была закончится никогда.Но однажды Сара трагически погибает... Спустя несколько лет успешная карьера дала Филдингу почти все, чего он желал, кроме утраченной любви.Он жил в Чикаго с другой женщиной, только временами ему стало казаться, что Сара жива...

Качество: WEB-DL 720p
Формат: MKV
Видео кодек: AVC
Аудио кодек: AC3
Видео: 1280x588 at 23.976 fps, MPEG-4 AVC, ~4000 kbps avg
Аудио#1: Russian: 48 kHz, AC3, 3/2 (L,C,R,l,r) + LFE ch, ~384.00 kbps avg |Двухголосый закадровый, West Video|
Аудио#2: Russian: 48 kHz, AC3, 2/0 (L,R) ch, ~192.00 kbps avg |Многоголосый закадровый, Первый канал|
Аудио#3: English: 48 kHz, AC3, 3/2 (L,C,R,l,r) + LFE ch, ~384.00 kbps avg
General
Unique ID : 224041005373445790442757365049162979727 (0xA88CBA64E36B0DC3878CE0480A0FD98F)
Complete name : /home/sb753/files/Waking.the.Dead.2000.720p.WEB-DL.2xRUS.ENG.HDCLUB.mkv
Format : Matroska
Format version : Version 4 / Version 2
File size : 3.61 GiB
Duration : 1h 45mn
Overall bit rate : 4 909 Kbps
Encoded date : UTC 2014-10-05 11:39:42
Writing application : mkvmerge v7.0.0 ('Where We Going') 32bit built on Jun 9 2014 15:08:34
Writing library : libebml v1.3.0 + libmatroska v1.4.1
DURATION : 01:38:30.160000000
NUMBER_OF_FRAMES : 1099
NUMBER_OF_BYTES : 39606
_STATISTICS_WRITING_APP : mkvmerge v7.0.0 ('Where We Going') 32bit built on Jun 9 2014 15:08:34
_STATISTICS_WRITING_DATE_UTC : 2014-10-05 11:39:42
_STATISTICS_TAGS : BPS DURATION NUMBER_OF_FRAMES NUMBER_OF_BYTES
Attachment : Yes

Video
ID : 1
Format : AVC
Format/Info : Advanced Video Codec
Format profile : High@L3.1
Format settings, CABAC : No
Format settings, ReFrames : 2 frames
Codec ID : V_MPEG4/ISO/AVC
Duration : 1h 45mn
Bit rate : 3 851 Kbps
Width : 1 280 pixels
Height : 688 pixels
Display aspect ratio : 1.85:1
Frame rate : 23.976 fps
Color space : YUV
Chroma subsampling : 4:2:0
Bit depth : 8 bits
Scan type : Progressive
Bits/(Pixel*Frame) : 0.182
Stream size : 2.83 GiB (78%)
Language : English
Default : Yes
Forced : No
Color primaries : BT.709-5, BT.1361, IEC 61966-2-4, SMPTE RP177
Transfer characteristics : BT.709-5, BT.1361
Matrix coefficients : BT.709-5, BT.1361, IEC 61966-2-4 709, SMPTE RP177

Audio #1
ID : 2
Format : AC-3
Format/Info : Audio Coding 3
Mode extension : CM (complete main)
Format settings, Endianness : Big
Codec ID : A_AC3
Duration : 1h 45mn
Bit rate mode : Constant
Bit rate : 384 Kbps
Channel(s) : 6 channels
Channel positions : Front: L C R, Side: L R, LFE
Sampling rate : 48.0 KHz
Bit depth : 16 bits
Compression mode : Lossy
Stream size : 289 MiB (8%)
Title : DVO (West Video)
Language : Russian
Default : Yes
Forced : No

Audio #2
ID : 3
Format : AC-3
Format/Info : Audio Coding 3
Mode extension : CM (complete main)
Format settings, Endianness : Big
Codec ID : A_AC3
Duration : 1h 45mn
Bit rate mode : Constant
Bit rate : 192 Kbps
Channel(s) : 2 channels
Channel positions : Front: L R
Sampling rate : 48.0 KHz
Bit depth : 16 bits
Compression mode : Lossy
Stream size : 144 MiB (4%)
Title : MVO (1)
Language : Russian
Default : No
Forced : No

Audio #3
ID : 4
Format : AC-3
Format/Info : Audio Coding 3
Mode extension : CM (complete main)
Format settings, Endianness : Big
Codec ID : A_AC3
Duration : 1h 45mn
Bit rate mode : Constant
Bit rate : 384 Kbps
Channel(s) : 6 channels
Channel positions : Front: L C R, Side: L R, LFE
Sampling rate : 48.0 KHz
Bit depth : 16 bits
Compression mode : Lossy
Stream size : 289 MiB (8%)
Title : Original
Language : English
Default : No
Forced : No

Text #1
ID : 5
Format : UTF-8
Codec ID : S_TEXT/UTF8
Codec ID/Info : UTF-8 Plain Text
Title : West Video
Language : Russian
Default : No
Forced : No

Text #2
ID : 6
Format : UTF-8
Codec ID : S_TEXT/UTF8
Codec ID/Info : UTF-8 Plain Text
Language : English
Default : No
Forced : No

Menu
00:00:00.000 : en:Opening Credits
00:02:03.000 : en:Sudden Terror
00:03:36.000 : en:Mornin' Private
00:07:39.000 : en:Topic of Conversation
00:15:30.000 : en:Offer of a Lifetime
00:19:02.000 : en:...and so it Begins
00:21:19.000 : en:Love Letters
00:24:38.000 : en:The Campaign Challenge
00:27:50.000 : en:Heart to Heart
00:32:46.000 : en:Going to Chicago
00:37:44.000 : en:1983 - The Campaign Trail
00:39:44.000 : en:1793 - Contrasts
00:50:09.000 : en:Two Weeks in Chile
00:53:10.000 : en:Sightings and Sanctuary
00:59:43.000 : en:Breaking Bread
01:02:41.000 : en:Final Journey
01:08:35.000 : en:Work Harder
01:13:43.000 : en:Contact
01:17:33.000 : en:Searching for Answers
01:21:34.000 : en:Victory Speech
01:28:35.000 : en:Apologies
01:36:45.000 : en:Keep Fighting
01:40:29.000 : en:Closing Credits
pb.wtf



Скачать Пробуждая мертвецов через торрент http://i64.fastpic.ru/big/2014/1007/9e/5f7d1914a9123d84ae3df283d0a13e9e.png Скачать фильм Пробуждая мертвецов через торрент бесплантно в хорошем качестве Описание: Молодой офицер береговой охраны Филдинг Пирс встречает девушку своей мечты. Это была настоящая любовь, которая не должна была ... 9.4 10 8
Торрент: Зарегистрирован [2014-10-07 15:10] · скачан: 36 раз
Статус: √ проверено
Размер: 3.61 GB
Как cкачать? Как скачать Пробуждая мертвецов через торрент | qTorrent

% Раздел Тема Автор DL S | L
Фильмы (WEB-DL 720p, 1080p) [ 10.84 GB ] Пробуждая мертвецов / Waking the Dead [2000 WEB-DL 1080p от KORSAR] [MVO + DVO] filbi1976 Скачать
1 | 0

28-11-2019 20:33  

Отключить всю рекламу на сайте

    Дорогой пользователь! Огромная просьба, поблагодарите релизера, оцените раздачу и оставьте свои комментарий, если Вы скачали Пробуждая мертвецов через торрент бесплатно! Внесите свою лепту в развитие PiratBit!
    Комментировать посты могут только пользователи прошедшие не сложную регистрацию
    Показать сообщения:    

    Пробуждая мертвецов через торрент
    Скачать бесплатно Пробуждая мертвецов
    Пробуждая мертвецов скачать торрент
    Пробуждая мертвецов смотреть онлайн
    Cкачать фильм Пробуждая мертвецов бесплатно
    Пробуждая мертвецов скачать торрент в хорошем качестве
    Пробуждая мертвецов смотреть онлайн бесплатно в хорошем качестве


    Вы не можете начинать темы
    Вы не можете отвечать на сообщения
    Вы не можете редактировать свои сообщения
    Вы не можете удалять свои сообщения
    Вы не можете голосовать в опросах
    Вы не можете прикреплять файлы к сообщениям
    Вы можете скачивать файлы