1 сезон

1 сезон

iTunes

1

КиноПоиск HD

Кинопоиск HD

iTunes

13

1 сезон

RePack

30

Новинка

ВАЖНО

ИГРА 18+

pack

RePack

MK11
pack

Легкие деньги

RePack

jed

RePack

fifa19

RePack

RDR2

RePack

NEED FOR SPEED™ PAYBACK

4 сезон

9 сезон

Бесстыжие 9 сезон

Все сериалы

все сериалы на PB.wtf

RePack

FAR CRY 5
  
Magnet ссылка

Ограбление по-итальянски / The Italian Job (Ф. Гэри Грей / F. Gary Gray) [2003, США, Франция, Великобритания, боевик, триллер, криминал, BDRip, Дубляж] pb.wtf

Ограбление по-итальянски через торрент pb.wtf

Размер: 2.74 GB | Добавлен: 6 лет 6 мес. назад | Торрент скачан:298 раз
Скачать  

07-10-2014 19:36 Ограбление по-итальянски Скачать торрент  

Ограбление по-итальянски / The Italian Job «Хватай. Убегай. Отомсти»
Год выпуска: 2003
Страна: США, Франция, Великобритания
Жанр: боевик, триллер, криминал
Продолжительность: 01:50:32
Перевод: Дублированный (Пифагор), профессиональный многоголосый (Позитив-Мультимедиа), профессиональный двухголосый (НТВ+)
Субтитры: Отсутствует
Режиссер: Ф. Гэри Грей / F. Gary Gray
В ролях:


Марк Уолберг (Charlie Croker), Шарлиз Терон (Stella Bridger), Эдвард Нортон (Steve), Джейсон Стэйтем (Handsome Rob), Сет Грин (Lyle), Мос Деф (Left Ear), Дональд Сазерленд (John Bridger), Фрэнки Джи (Wrench), Олек Крупа (Mashkov), Оскар Нунез (Security Guard), Фаусто Каллегарини (Italian Guard), Стефано Петронелли (Garbageman / Thug)

Описание:
Джон Бриджер всегда умел спланировать идеальное ограбление. Вместе со своей командой опытных бандитов он провернул не одно дело, но теперь решил уйти на покой. Впереди у Бриджера последнее задание: кража золотых слитков, в которой принимают участие инсайдер Стив, водитель Роб, взрыватель Левое ухо, технарь Лайл и Чарли - верный друг Бриджера и второй «планировщик» в их команде. Ограбление, изящное и быстрое, было разыграно как по нотам, но после его завершения веселье преступников было омрачено предательством...

Рейтинг:
Бюджет:$60 000 000
MPAA: PG-13 - Детям до 13 лет просмотр не желателен
Качество: BDRip
Формат: AVI
Видео кодек:XviD
Аудио кодек:AC3
Видео: XviD, 720x304 (2.35:1), 2183 kbps, 23,976 fps, 0,416 bpp
Аудио №1: AC3 / 5.1 / 48 kHz / 448 kbps / 16 bit - Дублированный (Пифагор)
Аудио №2: AC3 / 5.1 / 48 kHz / 448 kbps / 16 bit - Профессиональный многоголосый (Позитив-Мультимедиа)
Аудио №3: AC3 / 5.1 / 48 kHz / 448 kbps / 16 bit - Профессиональный двухголосый (НТВ+)


General
Complete name : D:\Users\_KaisiK_\uTorrent\КИНО\Ograblenie.po.ital'yanski.2003.Triple.BDRip.avi
Format : AVI
Format/Info : Audio Video Interleave
Format profile : OpenDML
File size : 2.74 GiB
Duration : 1h 50mn
Overall bit rate : 3 544 Kbps
Movie name : Ограбление по-итальянски / The Italian Job (2003) BDRip
Genre : Боевик, триллер, криминал, приключения, ремейк
Recorded date : 06.10.2014
Writing application : VirtualDubMod 1.5.10.3 | www.virtualdub-fr.org || (build 2550/release)
Writing library : VirtualDubMod build 2550/release
Copyright : rip by ivandubskoj

Video
ID : 0
Format : MPEG-4 Visual
Format profile : Advanced Simple@L5
Format settings, BVOP : 1
Format settings, QPel : No
Format settings, GMC : No warppoints
Format settings, Matrix : Default (MPEG)
Codec ID : XVID
Codec ID/Hint : XviD
Duration : 1h 50mn
Bit rate : 2 184 Kbps
Width : 720 pixels
Height : 304 pixels
Display aspect ratio : 2.35:1
Frame rate : 23.976 fps
Color space : YUV
Chroma subsampling : 4:2:0
Bit depth : 8 bits
Scan type : Progressive
Compression mode : Lossy
Bits/(Pixel*Frame) : 0.416
Stream size : 1.69 GiB (62%)
Writing library : XviD 73

Audio #1
ID : 1
Format : AC-3
Format/Info : Audio Coding 3
Mode extension : CM (complete main)
Codec ID : 2000
Duration : 1h 50mn
Bit rate mode : Constant
Bit rate : 448 Kbps
Channel(s) : 6 channels
Channel positions : Front: L C R, Side: L R, LFE
Sampling rate : 48.0 KHz
Bit depth : 16 bits
Compression mode : Lossy
Stream size : 354 MiB (13%)
Alignment : Split accross interleaves
Interleave, duration : 64 ms (1.53 video frames)
Interleave, preload duration : 500 ms
Title : Russian, DUB, R5 [Пифагор]

Audio #2
ID : 2
Format : AC-3
Format/Info : Audio Coding 3
Mode extension : CM (complete main)
Codec ID : 2000
Duration : 1h 50mn
Bit rate mode : Constant
Bit rate : 448 Kbps
Channel(s) : 6 channels
Channel positions : Front: L C R, Side: L R, LFE
Sampling rate : 48.0 KHz
Bit depth : 16 bits
Compression mode : Lossy
Stream size : 354 MiB (13%)
Alignment : Split accross interleaves
Interleave, duration : 64 ms (1.53 video frames)
Interleave, preload duration : 500 ms
Title : Russian, MVO, R7 [Позитив-Мультимедиа]

Audio #3
ID : 3
Format : AC-3
Format/Info : Audio Coding 3
Mode extension : CM (complete main)
Codec ID : 2000
Duration : 1h 50mn
Bit rate mode : Constant
Bit rate : 448 Kbps
Channel(s) : 6 channels
Channel positions : Front: L C R, Side: L R, LFE
Sampling rate : 48.0 KHz
Bit depth : 16 bits
Compression mode : Lossy
Stream size : 354 MiB (13%)
Alignment : Split accross interleaves
Interleave, duration : 64 ms (1.53 video frames)
Interleave, preload duration : 500 ms
Title : DVO [НТВ+]

[/code]
pb.wtf



Скачать Ограбление по-итальянски через торрент http://i4.imageban.ru/out/2014/10/07/c1327a9a449efe747a854182a9e7212b.png Скачать фильм Ограбление по-итальянски через торрент бесплантно в хорошем качестве Описание: Джон Бриджер всегда умел спланировать идеальное ограбление. Вместе со своей командой опытных бандитов он провернул не одно дело, ... 10 10 11
Торрент: Зарегистрирован [2014-10-07 19:36] · скачан: 298 раз
Статус: √ проверено
Размер: 2.74 GB
Как cкачать? Как скачать Ограбление по-итальянски через торрент | UTorrent

% Раздел Тема Автор DL S | L
Фильмы [HD 720p, 1080p] (Хороший звук DUB, MVO) [ 6.2 GB ] Ограбление по-итальянски / The Italian Job [2003 BDRip 1080p] + 3x[MVO] + [DVO] + 5x[AVO] + 2x[Ukr] killermax2013 Скачать
2 | 0
Фильмы (WEB-DL 720p, 1080p) [ 18.7 GB ] Ограбление по-итальянски / The Italian Job [2003 WEB-DL 1080p ] DUB+4xDVO+3xMVO+6xAVO bober100 Скачать
2 | 0
Релизы по Парсеру [Игры, Сериалы и Фильмы и другое...] [ 53.04 GB ] Ограбление по-итальянски / The Italian Job BDRemux 1080p | D P P2 A DEVI Скачать
1 | 0
Фильмы (HD 720p, 1080p) (48-60 fps) [ 3.92 GB ] Ограбление по-итальянски / The Italian Job [2003 BDRip 720p] DUB + DVO slaventi-69 Скачать
1 | 0
Фильмы [HD 720p, 1080p] (Хороший звук DUB, MVO) [ 13.86 GB ] Ограбление по-итальянски / The Italian Job [2003 BDRip 1080p DUB MVO DVO AVO] -Lockdown- Скачать
1 | 0
Фильмы [HD 720p, 1080p] (Хороший звук DUB, MVO) [ 6.68 GB ] Ограбление По-Итальянски / The Italian Job [2003 BDRip 720p] jb_alex Скачать
1 | 0
Фильмы 2001-2005 [ 2.18 GB ] Ограбление по-итальянски / The Italian Job [2003 BDRip] -=BIGBOSS=- Скачать
1 | 0

28-11-2019 20:33  

Отключить всю рекламу на сайте

    Дорогой пользователь! Огромная просьба, поблагодарите релизера, оцените раздачу и оставьте свои комментарий, если Вы скачали Ограбление по-итальянски через торрент бесплатно! Внесите свою лепту в развитие PiratBit!
    Комментировать посты могут только пользователи прошедшие не сложную регистрацию
    Показать сообщения:    

    Ограбление по-итальянски через торрент
    Скачать бесплатно Ограбление по-итальянски
    Ограбление по-итальянски скачать торрент
    Ограбление по-итальянски смотреть онлайн
    Cкачать фильм Ограбление по-итальянски бесплатно
    Ограбление по-итальянски скачать торрент в хорошем качестве
    Ограбление по-итальянски смотреть онлайн бесплатно в хорошем качестве


    Вы не можете начинать темы
    Вы не можете отвечать на сообщения
    Вы не можете редактировать свои сообщения
    Вы не можете удалять свои сообщения
    Вы не можете голосовать в опросах
    Вы не можете прикреплять файлы к сообщениям
    Вы можете скачивать файлы