Ссылка на приватное зеркало нашего сайта всего за 1$. Внимание количество ограничено!!!

2 сезон

iTunes

1 сезон

1

2 сезон

2 сезон

iTunes

1 сезон

RePack

30

Ultimate

ВАЖНО

ИГРА 18+

pack

RePack

MK11
pack

Забери бонус

RePack

jed

!!Акция!!

Alien_Rage

RePack

fifa19

RePack

Assassins Creed: Odyssey

RePack

NEED FOR SPEED™ PAYBACK

4 сезон

9 сезон

Бесстыжие 9 сезон

Все сериалы

все сериалы на PB.wtf

RePack

FAR CRY 5
  

Готэм / Gotham / Сезон: 1 / Серии 1-22 из 22 (Дэнни Кэннон / Danny Cannon) [2014, США, триллер, драма, криминал, WEB-DL 720p, MVO] [NewStudio] pb.wtf

Готэм через торрент pb.wtf

Размер: 32.67 GB | Добавлен: 5 лет 6 мес. назад | Торрент скачан:885 раз
Скачать  

24-09-2014 00:31 Готэм Скачать торрент  

Готэм / Gotham
«Доброо. Зло. Начало»


  • Год выпуска: 2014
  • Страна: США
  • Жанр: триллер, драма, криминал
  • Продолжительность: 00:49:18 (Серия)
  • Перевод: Профессиональный многоголосый закадровый) [NewStudio]

  • Режиссер: Дэнни Кэннон / Danny Cannon
  • В ролях:

    Бен МакКензи (Detective James Gordon), Донал Лог (Detective Harvey Bullock), Дэвид Мазоуз (Bruce Wayne), Забрина Гевара (Captain Sarah Essen), Шон Пертуи (Alfred Pennyworth), Робин Тейлор (Oswald Cobblepot), Эрин Ричардс (Barbara Kean), Камрен Бикондова (Selina Kyle), Кори Майкл Смит (Edward Nygma), Джада Пинкетт Смит (Fish Mooney), Раджив Пахуджа (District Attorney), Дин Моррис (Wayne Funeral Mourner)

  • Описание:
    История о том, как Джеймс Гордон прошел нелегкий путь от детектива-новобранца до комиссара полиции. Сериал «Готэм» рассказывает о событиях, происходивших в детские годы Брюса Уэйна, впоследствии ставшего Бэтменом. Родителей мальчика убивают у него на глазах. За расследование убийства четы Уэйнов берётся молодой детектив Джим Гордон. Ему приходится иметь дело со злодеями всех мастей, и одним из самых коварных по праву считается Освальд Кобблпот, более известный как Пингвин.
  • Рейтинг:



  • Качество: WEB-DL 720p
  • Формат: :MKV
  • Видео кодек: AVC
  • Аудио кодек: AC3
  • Видео: 1280x718 (16:9), 3989 kbps, 23,976 fps, 0,181 bpp
  • Аудио №1: русский / 5.1 / 48 kHz / 384 kbps / 16 bit
  • Аудио №2: английский / 5.1 / 48 kHz / 384 kbps / 16 bit
  • Релиз от: GEKADOL

    Код:

    Внимание! Раздача ведётся путём добавления новых серий; при каждом добавлении создаётся новый торрент. Чтобы начать докачку новой серии, пользователям необходимо сделать следующее:
    (1) остановить скачивание,
    (2) удалить старый торрент у себя из клиента (старые серии удалять не надо),
    (3) скачать новый торрент и запустить его у себя в клиенте вместо старого, при этом указать клиенту путь в старую папку куда и должно происходить скачивание новых серий.
    Ваш клиент при этом должен произвести хеширование (проверку) старой папки (если не производит сам - помогите ему сделать это), и будет докачивать только те серии которых у вас ещё нет. Старые серии при этом не удаляются, а продолжают раздаваться!
    Eсли вы уже удалили старые серии, то предотвратить повторную закачку старых серий можно, отжав галочку в соответсвующих местах при запуске нового торрента. По возможности, желательно не удалять старые серии как можно дольше чтобы релизёр не столько продолжал раздавать старые серии, а смог сконцентрироваться на новых.


    Код:

    General
    Unique ID                                : 238590458032154369384191774157960358939 (0xB37ED9CB3498E4A89B057ED7F6F3AC1B)
    Complete name                            : I:\Готэм(Сезон 1)720\Gotham.s01e01.WEBDL.720p.NewStudio.TV.mkv
    Format                                   : Matroska
    Format version                           : Version 4 / Version 2
    File size                                : 1.67 GiB
    Duration                                 : 49mn 18s
    Overall bit rate                         : 4 855 Kbps
    Encoded date                             : UTC 2014-09-23 18:49:35
    Writing application                      : mkvmerge v7.2.0 ('On Every Street') 64bit built on Sep 13 2014 15:52:10
    Writing library                          : libebml v1.3.0 + libmatroska v1.4.1
    DURATION                                 : 00:49:18.976000000
    NUMBER_OF_FRAMES                         : 92468
    NUMBER_OF_BYTES                          : 142030848
    _STATISTICS_WRITING_APP                  : mkvmerge v7.2.0 ('On Every Street') 64bit built on Sep 13 2014 15:52:10
    _STATISTICS_WRITING_DATE_UTC             : 2014-09-23 18:49:35
    _STATISTICS_TAGS                         : BPS DURATION NUMBER_OF_FRAMES NUMBER_OF_BYTES

    Video
    ID                                       : 1
    Format                                   : AVC
    Format/Info                              : Advanced Video Codec
    Format profile                           : High@L3.1
    Format settings, CABAC                   : No
    Format settings, ReFrames                : 2 frames
    Codec ID                                 : V_MPEG4/ISO/AVC
    Duration                                 : 49mn 18s
    Bit rate                                 : 3 990 Kbps
    Width                                    : 1 280 pixels
    Height                                   : 718 pixels
    Display aspect ratio                     : 16:9
    Frame rate                               : 23.976 fps
    Color space                              : YUV
    Chroma subsampling                       : 4:2:0
    Bit depth                                : 8 bits
    Scan type                                : Progressive
    Bits/(Pixel*Frame)                       : 0.181
    Stream size                              : 1.37 GiB (82%)
    Language                                 : English
    Default                                  : Yes
    Forced                                   : No
    Color primaries                          : BT.709-5, BT.1361, IEC 61966-2-4, SMPTE RP177
    Transfer characteristics                 : BT.709-5, BT.1361
    Matrix coefficients                      : BT.709-5, BT.1361, IEC 61966-2-4 709, SMPTE RP177

    Audio #1
    ID                                       : 2
    Format                                   : AC-3
    Format/Info                              : Audio Coding 3
    Mode extension                           : CM (complete main)
    Codec ID                                 : A_AC3
    Duration                                 : 49mn 18s
    Bit rate mode                            : Constant
    Bit rate                                 : 384 Kbps
    Channel(s)                               : 6 channels
    Channel positions                        : Front: L C R, Side: L R, LFE
    Sampling rate                            : 48.0 KHz
    Bit depth                                : 16 bits
    Compression mode                         : Lossy
    Stream size                              : 135 MiB (8%)
    Language                                 : Russian
    Default                                  : Yes
    Forced                                   : No

    Audio #2
    ID                                       : 3
    Format                                   : AC-3
    Format/Info                              : Audio Coding 3
    Mode extension                           : CM (complete main)
    Codec ID                                 : A_AC3
    Duration                                 : 49mn 18s
    Bit rate mode                            : Constant
    Bit rate                                 : 384 Kbps
    Channel(s)                               : 6 channels
    Channel positions                        : Front: L C R, Side: L R, LFE
    Sampling rate                            : 48.0 KHz
    Bit depth                                : 16 bits
    Compression mode                         : Lossy
    Stream size                              : 135 MiB (8%)
    Language                                 : English
    Default                                  : No
    Forced                                   : No


    Скриншоты:
    скриншот   скриншот   скриншот   скриншот   скриншот  
    скриншот  

    Раздача ведётся путём добавления новых серий. Добавлена 22 серия (06.05.2015).Просьба перекачать торрент файл.

    pb.wtf



  • Скачать Готэм через торрент http://i66.fastpic.ru/big/2014/0924/d5/8871d5ad06a6370a2bfed12323ad7dd5.png Скачать фильм Готэм через торрент бесплантно в хорошем качестве Описание: История о том, как Джеймс Гордон прошел нелегкий путь от детектива-новобранца до комиссара полиции. Сериал «Готэм» рассказывает о ... 9.8 10 75
    Info! Золотая раздача, скачанное не засчитывается.
    Торрент: Зарегистрирован [2015-05-06 01:22] · скачан: 885 раз
    Статус: √ проверено
    Размер: 32.67 GB
    Как cкачать? Как скачать Готэм через торрент | qTorrent

    % Раздел Тема Автор DL S | L
    Зарубежные сериалы [ 68.84 GB ] Готэм / Gotham / Сезон: 1 / Серии: 1-22 из 22 [2014 BDRip 1080p] MVO [TVShows] bober100 Скачать
    1 | 0
    Зарубежные сериалы [ 40.59 GB ] Готэм / Gotham / Сезон: 4 / Серии: 1-22 из 22 [2017 WEB-DL 1080p] MVO [LostFilm] bober100 Скачать
    1 | 0
    Зарубежные сериалы [ 22.48 GB ] Готэм / Gotham / Сезон: 4 / Серии: 1-22 из 22 [2017-2018 WEB-DL 720p] [DVO] killermax2013 Скачать
    1 | 0
    Зарубежные сериалы [ 42.98 GB ] Готэм / Gotham / Сезон: 4 / Серии: 1-22 из 22 [2017 WEB-DLRip 1080p] [MVO] killermax2013 Скачать
    1 | 0
    Зарубежные сериалы [ 20 GB ] Готэм / Gotham / Сезон: 4 / Серии: 1-22 из 22 [2017 WEB-DL 720p] MVO [Jaskier] bober100 Скачать
    1 | 0
    Зарубежные сериалы [ 11.83 GB ] Готэм / Gotham / Сезон: 4 / Серии: 1-22 из 22 [2017 WEB-DLRip] MVO [Jaskier] bober100 Скачать
    1 | 0
    Зарубежные сериалы [ 11.83 GB ] Готэм / Gotham / Сезон: 4 / Серии: 1-22 из 22 [2017 WEB-DLRip] MVO [LostFilm] bober100 Скачать
    1 | 0


    Последний раз редактировалось: GEKADOL (2015-05-06 01:22), всего редактировалось 27 раз(а)

    28-11-2019 20:33  

    Отключить всю рекламу на сайте

    28-10-2014 12:59 Готэм Скачать торрент  

    на обложке реклама ягуара бууууэээpb.wtf



    11-02-2015 13:11 Готэм Скачать торрент  

    Хороший сериал, жаль они его тянут, сжать бы весь сезон серий до 10.pb.wtf



    18-02-2015 05:33 Готэм Скачать торрент  

    как узнать когда будет 16 серия ? и как они выходят раз в месяц или раз в неделю ?! спасибо !pb.wtf



    22-04-2015 12:16 Готэм Скачать торрент  

    Зачем, ну зачем!? такой спойлерной скрин.. pb.wtf



      Дорогой пользователь! Огромная просьба, поблагодарите релизера, оцените раздачу и оставьте свои комментарий, если Вы скачали Готэм через торрент бесплатно! Внесите свою лепту в развитие PiratBit!
      Комментировать посты могут только пользователи прошедшие не сложную регистрацию
      Показать сообщения:    

      Готэм через торрент
      Скачать бесплатно Готэм
      Готэм скачать торрент
      Готэм смотреть онлайн
      Cкачать фильм Готэм бесплатно
      Готэм скачать торрент в хорошем качестве
      Готэм смотреть онлайн бесплатно в хорошем качестве


      Вы не можете начинать темы
      Вы не можете отвечать на сообщения
      Вы не можете редактировать свои сообщения
      Вы не можете удалять свои сообщения
      Вы не можете голосовать в опросах
      Вы не можете прикреплять файлы к сообщениям
      Вы можете скачивать файлы