Ссылка на приватное зеркало нашего сайта всего за 1$. Внимание количество ограничено!!!

2 сезон

iTunes

1 сезон

1

iTunes

iTunes

iTunes

1 сезон

RePack

30

ИГРА 18+

pack

ВАЖНО

!!Акция!!

Alien_RageХит недели

RePack

MK11
pack

Забери бонус

RePack

jed

!!Акция!!

Alien_Rage

RePack

fifa19

RePack

Assassins Creed: Odyssey

RePack

NEED FOR SPEED™ PAYBACK

4 сезон

9 сезон

Бесстыжие 9 сезон

Все сериалы

все сериалы на PB.wtf

RePack

FAR CRY 5
  

Если твоя девушка – зомби / Life After Beth (Джефф Баэна) [2014 г., мелодрама, комедия, ужасы, BDRip 720p, Дубляж [iTunes]] pb.wtf

Если твоя девушка – зомби через торрент pb.wtf

Размер: 4.6 GB | Добавлен: 6 лет назад | Торрент скачан:263 раза
Скачать  

08-10-2014 16:49 Если твоя девушка – зомби Скачать торрент  

Если твоя девушка – зомби / Life After Beth

Год выпуска: 2014
Страна: США
Жанр: мелодрама, комедия, ужасы
Продолжительность: 01:28:32
Перевод: Дубляж [iTunes]

Режиссер: Джефф Баэна
Продюссер: Элизабет Дестро, Майкл Закин, Роксанна Андерсон
Сценарий: Джефф Баэна
Бюджет: $2 400 000
Премьера в мире: 19 января 2014

IMDB 5.90 (2442)


В ролях: Дэйн ДеХаан, Джон Си Райли, Обри Плаза, Молли Шеннон, Шерил Хайнс, Пол Райзер, Мэттью Грей Гублер, Анна Кендрик, Эва Ла Даре, Томас МакДонелл

Описание: Когда у Зака умирает его девушка, он безутешен. Однако вскоре, неожиданно для всех, она чудесным образом возвращается, но в новом качестве — она теперь зомби! Поскольку внешне девушка пока мало чем отличается от себя прежней, а Зак все еще любит ее, он с радостью принимает ее к себе в дом. Правда теперь ему придется смириться с некоторыми ее новыми привычками...

Качество: BDRip 720p
Формат: MKV
Видео кодек: AVC
Аудио кодек: AC3
Видео: MPEG-4 AVC, 5517 Кбит/с, 1280x696, 23.976 fps
Аудио#1: Русский: AC3, 6 ch, 384 Кбит/с, 48.0 KHz
Аудио#2: Английский: DTS, 6 ch, 1509 Кбит/с, 48.0 KHz
General
Unique ID : 248093791489299623793588017664619914757 (0xBAA5204EF181FCA6ADA67CCD94772605)
Complete name : /home/sb1855/files/M0Ya.deBushKa.30mbi.2014.D.BDRip.720p.mkv
Format : Matroska
Format version : Version 2
File size : 4.60 GiB
Duration : 1h 29mn
Overall bit rate : 7 402 Kbps
Encoded date : UTC 2014-10-08 04:25:54
Writing application : mkvmerge v7.2.0 ('On Every Street') 64bit built on Sep 13 2014 15:52:10
Writing library : libebml v1.3.0 + libmatroska v1.4.1
DURATION : 01:28:46.688000000
NUMBER_OF_FRAMES : 166459
NUMBER_OF_BYTES : 255681024
_STATISTICS_WRITING_APP : mkvmerge v7.2.0 ('On Every Street') 64bit built on Sep 13 2014 15:52:10
_STATISTICS_WRITING_DATE_UTC : 2014-10-08 04:25:54
_STATISTICS_TAGS : BPS DURATION NUMBER_OF_FRAMES NUMBER_OF_BYTES

Video
ID : 1
Format : AVC
Format/Info : Advanced Video Codec
Format profile : High@L4.1
Format settings, CABAC : Yes
Format settings, ReFrames : 5 frames
Codec ID : V_MPEG4/ISO/AVC
Duration : 1h 29mn
Bit rate : 5 517 Kbps
Width : 1 280 pixels
Height : 696 pixels
Display aspect ratio : 1.85:1
Frame rate : 23.976 fps
Color space : YUV
Chroma subsampling : 4:2:0
Bit depth : 8 bits
Scan type : Progressive
Bits/(Pixel*Frame) : 0.258
Stream size : 3.33 GiB (72%)
Writing library : x264 core 142 r2479 dd79a61
Encoding settings : cabac=1 / ref=5 / deblock=1:0:0 / analyse=0x3:0x133 / me=umh / subme=7 / psy=1 / psy_rd=1.00:0.00 / mixed_ref=1 / me_range=16 / chroma_me=1 / trellis=1 / 8x8dct=1 / cqm=0 / deadzone=21,11 / fast_pskip=0 / chroma_qp_offset=-2 / threads=18 / lookahead_threads=3 / sliced_threads=0 / nr=0 / decimate=1 / interlaced=0 / bluray_compat=0 / constrained_intra=0 / bframes=3 / b_pyramid=2 / b_adapt=1 / b_bias=0 / direct=1 / weightb=1 / open_gop=0 / weightp=2 / keyint=250 / keyint_min=23 / scenecut=40 / intra_refresh=0 / rc_lookahead=40 / rc=2pass / mbtree=1 / bitrate=5517 / ratetol=1.0 / qcomp=0.60 / qpmin=0 / qpmax=69 / qpstep=4 / cplxblur=20.0 / qblur=0.5 / ip_ratio=1.40 / aq=1:1.00
Language : English
Default : Yes
Forced : No
DURATION : 01:29:00.135000000
NUMBER_OF_FRAMES : 128035
NUMBER_OF_BYTES : 3676771941
_STATISTICS_WRITING_APP : mkvmerge v7.2.0 ('On Every Street') 64bit built on Sep 13 2014 15:52:10
_STATISTICS_WRITING_DATE_UTC : 2014-10-08 04:25:54
_STATISTICS_TAGS : BPS DURATION NUMBER_OF_FRAMES NUMBER_OF_BYTES

Audio #1
ID : 2
Format : AC-3
Format/Info : Audio Coding 3
Mode extension : CM (complete main)
Format settings, Endianness : Big
Codec ID : A_AC3
Duration : 1h 29mn
Bit rate mode : Constant
Bit rate : 384 Kbps
Channel(s) : 6 channels
Channel positions : Front: L C R, Side: L R, LFE
Sampling rate : 48.0 KHz
Bit depth : 16 bits
Compression mode : Lossy
Stream size : 244 MiB (5%)
Language : Russian
Default : No
Forced : No

Audio #2
ID : 3
Format : DTS
Format/Info : Digital Theater Systems
Codec ID : A_DTS
Duration : 1h 29mn
Bit rate mode : Constant
Bit rate : 1 510 Kbps
Channel(s) : 6 channels
Channel positions : Front: L C R, Side: L R, LFE
Sampling rate : 48.0 KHz
Bit depth : 24 bits
Compression mode : Lossy
Stream size : 961 MiB (20%)
Language : English
Default : No
Forced : No

Menu
00:00:00.000 : en:00:00:00.000
00:05:12.854 : en:00:05:12.854
00:09:12.761 : en:00:09:12.761
00:15:07.573 : en:00:15:07.573
00:19:06.312 : en:00:19:06.312
00:25:59.725 : en:00:25:59.725
00:30:09.558 : en:00:30:09.558
00:35:47.145 : en:00:35:47.145
00:42:12.321 : en:00:42:12.321
00:48:59.353 : en:00:48:59.353
00:54:09.746 : en:00:54:09.746
01:01:21.720 : en:01:01:21.720
01:05:48.194 : en:01:05:48.194
01:09:19.655 : en:01:09:19.655
01:14:44.313 : en:01:14:44.313
01:18:25.326 : en:01:18:25.326

pb.wtf



Скачать Если твоя девушка – зомби через торрент http://i63.fastpic.ru/big/2014/1008/9e/dcdebb914f88786f97af0c1930aa909e.png Скачать фильм Если твоя девушка – зомби через торрент бесплантно в хорошем качестве Описание: Когда у Зака умирает его девушка, он безутешен. Однако вскоре, неожиданно для всех, она чудесным образом возвращается, но в новом ... 8.7 10 9
Торрент: Зарегистрирован [2014-10-08 16:49] · скачан: 263 раз
Статус: √ проверено
Размер: 4.6 GB
Как cкачать? Как скачать Если твоя девушка – зомби через торрент | qTorrent

% Раздел Тема Автор DL S | L
Фильмы 2014 [DVDrip, WEB-DLRip, HDrip] [ 1.37 GB ] Если твоя девушка – зомби / Life After Beth [2014 WEB-DLRip ] GEKADOL Скачать
1 | 0
Фильмы 2014 [DVDrip, WEB-DLRip, HDrip] [ 2.18 GB ] Если твоя девушка – зомби / Life After Beth [2014 BDRip-AVC] Dub potroks Скачать
1 | 0

28-11-2019 20:33  

Отключить всю рекламу на сайте

    Дорогой пользователь! Огромная просьба, поблагодарите релизера, оцените раздачу и оставьте свои комментарий, если Вы скачали Если твоя девушка – зомби через торрент бесплатно! Внесите свою лепту в развитие PiratBit!
    Комментировать посты могут только пользователи прошедшие не сложную регистрацию
    Показать сообщения:    

    Если твоя девушка – зомби через торрент
    Скачать бесплатно Если твоя девушка – зомби
    Если твоя девушка – зомби скачать торрент
    Если твоя девушка – зомби смотреть онлайн
    Cкачать фильм Если твоя девушка – зомби бесплатно
    Если твоя девушка – зомби скачать торрент в хорошем качестве
    Если твоя девушка – зомби смотреть онлайн бесплатно в хорошем качестве


    Вы не можете начинать темы
    Вы не можете отвечать на сообщения
    Вы не можете редактировать свои сообщения
    Вы не можете удалять свои сообщения
    Вы не можете голосовать в опросах
    Вы не можете прикреплять файлы к сообщениям
    Вы можете скачивать файлы