Всегда рабочее зеркало без VPN и Proxy просто перед .vidak.icu напиши любое слово или цифру, Пример http://fy4c.vidak.icu

MVO

2 сезон

1 сезон

1

1 сезон

iTunes

2 сезон

13

1 сезон

Deluxe

pack

Рекомендуем

Пиратка

30

ВАЖНО

RePack

MK11

RePack

jed

RePack

fifa19

RePack

RDR2

RePack

NEED FOR SPEED™ PAYBACK

Кинопоиск HD

6 сезон

 Острые козырьки 6 сезон

Все сериалы

все сериалы на PB.wtf

RePack

FAR CRY 5

Anonymous, нам критически не хватает 5601 руб. на оплату серверов и переферии за Апрель, помоги нам пожалуйста, вся надежда только на тебя. В благодарность мы отключим тебе всю рекламу на сайте!

×
  
Magnet ссылка

Большая афера / The Grand Seduction (Дон МакКеллар / Don McKellar) [2013, Комедия, BDRip-AVC] MVO [Лицензия] pb.wtf

Большая афера через торрент pb.wtf

Размер: 2.18 GB | Добавлен: 7 лет 7 мес. назад | Торрент скачан:977 раз
Смотреть онлайн Большая афера | Скачать    Ребята, помогите собрать деньги на оплату серверов!!!

09-10-2014 13:07 Большая афера Скачать торрент  

Большая афера / The Grand Seduction
Год выпуска: 2013
Страна: Канада / Max Films Productions Inc., Morag Loves Company Limited
Жанр: Комедия
Продолжительность: 01:53:08
Перевод: Профессиональный многоголосый [R5]
Субтитры: Русские, английские (Full + SDH)

Режиссер: Дон МакКеллар / Don McKellar

В ролях: Брендан Глисон, Тейлор Китч, Лиэн Балабан, Гордон Пинсент, Анна Хопкинс, Ронда Роджерс, Джофф Адамс, Джон Бартлетт, Карли Бун, Марк Критч

Описание: Наши дни, маленькая деревушка под названием Гадюкино, по уровню развития сильно отставшая от XXI столетия. В деревне существует предприятие, на котором и держится вся деревня, однако если не найдется доктор, согласившейся на нем работать штатным врачом - фабрика будет закрыта. И к большому удивлению местных жителей, смирившихся с худшим, доктор нашелся. Им оказался молодой человек по имени Пол Льюис. Честно говоря, сам Пол думал пробыть тут всего пару недель, однако никак не остаться на постоянное место работы. Местные жители, руководить которыми назначен Мюррей Френч, должны будут постараться, дабы убедить Пола остаться в их деревне. Каждый житель Гадюкино в действительности на многое пойдет, дабы только Пол захотел остаться в их маленькой деревне. И за их «стараниями» будет интересно понаблюдать.



Качество: BDRip-AVC
Формат: MKV
Видео кодек: H.264
Аудио кодек: AC3
Видео: 960x518 (1,85:1), 23,976 fps, 1862 kbps, 0.156 bit/pixel
Аудио#1: 48 kHz, AC3 Dolby Digital, 3/2 (L,C,R,l,r) + LFE ch, 448.00 kbps | RUS
Аудио#2: 48 kHz, AC3 Dolby Digital, 3/2 (L,C,R,l,r) + LFE ch, 448.00 kbps | ENG

Релиз группы:
Автор рипа: potroks
Общее
Уникальный идентификатор : 200708834427924885003646900067912012433 (0x96FF1D8D00AF1DC5A6C6D1E95A5E5291)
Полное имя : F:\Комедия\Bol'shaya.Afera.2013.DUAL.BDRip.x264.-HELLYWOOD.mkv
Формат : Matroska
Версия формата : Version 4 / Version 2
Размер файла : 2,18 Гбайт
Продолжительность : 1 ч. 53 м.
Общий поток : 2760 Кбит/сек
Название фильма : The Grand Seduction (2013) - HELLYWOOD
Дата кодирования : UTC 2014-10-09 12:13:01
Программа кодирования : mkvmerge v5.9.0 ('On The Loose') built on Dec 15 2012 16:39:58
Библиотека кодирования : libebml v1.3.0 + libmatroska v1.4.0

Видео
Идентификатор : 1
Формат : AVC
Формат/Информация : Advanced Video Codec
Профиль формата : High@L4.1
Параметр CABAC формата : Да
Параметр ReFrames формата : 11 кадров
Идентификатор кодека : V_MPEG4/ISO/AVC
Продолжительность : 1 ч. 53 м.
Битрейт : 1862 Кбит/сек
Ширина : 960 пикселей
Высота : 518 пикселей
Соотношение сторон : 1,85:1
Режим частоты кадров : Постоянный
Частота кадров : 23,976 кадра/сек
Цветовое пространство : YUV
Субдискретизация насыщенности : 4:2:0
Битовая глубина : 8 бит
Тип развёртки : Прогрессивная
Бит/(Пиксели*Кадры) : 0.156
Размер потока : 1,43 Гбайт (66%)
Заголовок : potroks
Библиотека кодирования : x264 core 128 r2216M 198a7ea
Настройки программы : cabac=1 / ref=12 / deblock=1:-2:-1 / analyse=0x3:0x133 / me=umh / subme=11 / psy=1 / psy_rd=1.10:0.05 / mixed_ref=1 / me_range=48 / chroma_me=1 / trellis=2 / 8x8dct=1 / cqm=0 / deadzone=21,11 / fast_pskip=0 / chroma_qp_offset=-3 / threads=6 / lookahead_threads=1 / sliced_threads=0 / nr=0 / decimate=0 / interlaced=0 / bluray_compat=0 / constrained_intra=0 / bframes=13 / b_pyramid=1 / b_adapt=2 / b_bias=0 / direct=3 / weightb=1 / open_gop=0 / weightp=2 / keyint=250 / keyint_min=22 / scenecut=40 / intra_refresh=0 / rc_lookahead=120 / rc=2pass / mbtree=0 / bitrate=1862 / ratetol=1.0 / qcomp=0.70 / qpmin=0 / qpmax=69 / qpstep=4 / cplxblur=20.0 / qblur=0.5 / vbv_maxrate=50000 / vbv_bufsize=62500 / nal_hrd=none / ip_ratio=1.35 / pb_ratio=1.25 / aq=1:0.75
Язык : English
Default : Да
Forced : Нет

Аудио #1
Идентификатор : 2
Формат : AC-3
Формат/Информация : Audio Coding 3
Расширение режима : CM (complete main)
Параметр Endianness формата : Big
Идентификатор кодека : A_AC3
Продолжительность : 1 ч. 53 м.
Вид битрейта : Постоянный
Битрейт : 448 Кбит/сек
Каналы : 6 каналов
Расположение каналов : Front: L C R, Side: L R, LFE
Частота : 48,0 КГц
Битовая глубина : 16 бит
Метод сжатия : С потерями
Размер потока : 363 Мбайт (16%)
Заголовок : MVO | DD 5.1 @ 448 kbps - R5
Язык : Russian
Default : Да
Forced : Нет

Аудио #2
Идентификатор : 3
Формат : AC-3
Формат/Информация : Audio Coding 3
Расширение режима : CM (complete main)
Параметр Endianness формата : Big
Идентификатор кодека : A_AC3
Продолжительность : 1 ч. 53 м.
Вид битрейта : Постоянный
Битрейт : 448 Кбит/сек
Каналы : 6 каналов
Расположение каналов : Front: L C R, Side: L R, LFE
Частота : 48,0 КГц
Битовая глубина : 16 бит
Метод сжатия : С потерями
Размер потока : 363 Мбайт (16%)
Заголовок : Original | DD 5.1 @ 448 kbps
Язык : English
Default : Нет
Forced : Нет

Текст #1
Идентификатор : 4
Формат : UTF-8
Идентификатор кодека : S_TEXT/UTF8
Идентификатор кодека/Информация : UTF-8 Plain Text
Язык : Russian
Default : Нет
Forced : Нет

Текст #2
Идентификатор : 5
Формат : UTF-8
Идентификатор кодека : S_TEXT/UTF8
Идентификатор кодека/Информация : UTF-8 Plain Text
Заголовок : Full
Язык : English
Default : Нет
Forced : Нет

Текст #3
Идентификатор : 6
Формат : UTF-8
Идентификатор кодека : S_TEXT/UTF8
Идентификатор кодека/Информация : UTF-8 Plain Text
Заголовок : SDH
Язык : English
Default : Нет
Forced : Нет

Меню
00:00:00.000 : :Chapter 01
00:08:31.427 : :Chapter 02
00:15:51.033 : :Chapter 03
00:21:00.634 : :Chapter 04
00:29:02.073 : :Chapter 05
00:36:40.865 : :Chapter 06
00:45:05.703 : :Chapter 07
00:51:12.152 : :Chapter 08
00:58:23.750 : :Chapter 09
01:06:46.585 : :Chapter 10
01:12:34.099 : :Chapter 11
01:20:29.241 : :Chapter 12
01:27:37.168 : :Chapter 13
01:32:48.020 : :Chapter 14
01:40:28.939 : :Chapter 15
01:49:11.044 : :Chapter 16
pb.wtf



Скачать Большая афера через торрент https://pic1.kartinco.top/images/71/se7nf.jpg Скачать, смотреть онлайн Большая афера бесплантно в хорошем качестве Описание: Наши дни, маленькая деревушка под названием Гадюкино, по уровню развития сильно отставшая от XXI столетия. В деревне существует ... 9.3 10 15
Торрент: Зарегистрирован [2014-10-09 13:07] · скачан: 977 раз
Статус: √ проверено
Размер: 2.18 GB
Как cкачать? Как скачать Большая афера через торрент | UTorrent

% Раздел Тема Автор DL S | L
Фильмы с авторской озвучкой [ 1.46 GB ] Большая афера / The Grand Seduction [2013 BDRip] [AVO] killermax2013 Скачать
1 | 0
Фильмы [HD 720p, 1080p] (Хороший звук DUB, MVO) [ 4.44 GB ] Большая афера / The Grand Seduction [2013 BDRip 720p] DUBAVO _denis_100 Скачать
1 | 0
Фильмы (Blu-ray, BD-Remux, HDDVD) [ 25.56 GB ] Большая афера / The Grand Seduction (2013 BDRemux 1080p / MVO лицензия] Ворон Скачать
1 | 0
Фильмы (DVD фильмы) [ 5.77 GB ] Большая афера / The Grand Seduction [2013 DVD9] R5 voovaz Скачать
1 | 0
Фильмы [HD 720p, 1080p] (Хороший звук DUB, MVO) [ 6.81 GB ] Большая афера / The Grand Seduction [2013 BDRip 1080p MVO [] от R.G. HD-Films Ворон Скачать
1 | 0
Фильмы 2013 [DVDrip, WEB-DLRip, HDrip] [ 2.18 GB ] Большая афера / The Grand Seduction [2013 HDRip многоголосый [] Ворон Скачать
1 | 0
Фильмы 2013 [DVDrip, WEB-DLRip, HDrip] [ 1.46 GB ] Большая афера / The Grand Seduction [2013 HDRip многоголосый [] Ворон Скачать
1 | 0


Последний раз редактировалось: potroks (2014-10-09 14:15), всего редактировалось 1 раз

28-11-2019 20:33  

Отключить всю рекламу на сайте

09-10-2014 14:13 Большая афера Скачать торрент  

Год выпуска 2013 все такиpb.wtf



12-10-2014 09:11 Большая афера Скачать торрент  

как фильм?pb.wtf



    Дорогой пользователь! Огромная просьба, поблагодарите релизера, оцените раздачу и оставьте свои комментарий, если Вы скачали Большая афера через торрент бесплатно!
    Комментировать посты могут только пользователи прошедшие не сложную регистрацию
    Показать сообщения:    

    Большая афера через торрент
    Скачать бесплатно Большая афера
    Большая афера скачать торрент
    Большая афера смотреть онлайн
    Cкачать фильм Большая афера бесплатно
    Большая афера скачать торрент в хорошем качестве
    Большая афера смотреть онлайн бесплатно в хорошем качестве


    Вы не можете начинать темы
    Вы не можете отвечать на сообщения
    Вы не можете редактировать свои сообщения
    Вы не можете удалять свои сообщения
    Вы не можете голосовать в опросах
    Вы не можете прикреплять файлы к сообщениям
    Вы можете скачивать файлы