Ссылка на приватное зеркало нашего сайта всего за 1$. Внимание количество ограничено!!!

2 сезон

iTunes

1 сезон

1

iTunes

iTunes

iTunes

1 сезон

RePack

30

ИГРА 18+

pack

ВАЖНО

!!Акция!!

Alien_RageХит недели

RePack

MK11
pack

Забери бонус

RePack

jed

!!Акция!!

Alien_Rage

RePack

fifa19

RePack

Assassins Creed: Odyssey

RePack

NEED FOR SPEED™ PAYBACK

4 сезон

9 сезон

Бесстыжие 9 сезон

Все сериалы

все сериалы на PB.wtf

RePack

FAR CRY 5
  

Лига выдающихся джентльменов / The League of Extraordinary Gentlemen (Стивен Норрингтон) [2003 г., фантастика, фэнтези, боевик, приключения, BDRip 1080p, DUB, MVO, DVO, AVO] pb.wtf

Лига выдающихся джентльменов через торрент pb.wtf

Размер: 16.8 GB | Добавлен: 6 лет назад | Торрент скачан:117 раз
Скачать  

09-10-2014 14:38 Лига выдающихся джентльменов Скачать торрент  

Лига выдающихся джентльменов / The League of Extraordinary Gentlemen

Год выпуска: 2003
Страна: США, Германия, Чехия, Великобритания
Жанр: фантастика, фэнтези, боевик, приключения
Продолжительность: 01:50:06
Перевод: Дубляж, Многоголосый закадровый, Двухголосый закадровый, Авторский
Субтитры: Russian, English

Режиссер: Стивен Норрингтон
Продюссер: Дон Мерфи, Тревор Альберт, Рик Бенаттар
Сценарий: Джеймс Робинсон, Алан Мур, Кевин О’Нилл
Бюджет: $78 000 000
Премьера в мире: 11 июля 2003

IMDB 5.80 (121 043)


В ролях: Шон Коннери, Насируддин Шах, Пета Уилсон, Тони Карран, Стюарт Таунсенд, Шэйн Уэст, Джейсон Флеминг, Ричард Роксбург, Макс Райан, Том Гудман-Хилл, Вадим Яковлев, Станислав Концевич, Ян Цапник, Евгений Иванов, Геннадий Смирнов

Описание: Прославленный авантюрист Аллан Куотермейн вступает в борьбу с международным террористом по прозвищу Фантом и за собой ведёт целый выводок столь же примечательных джентльменов — капитана Немо, вампиршу Мину Харкер, человека-невидимку Родни Скиннера, тайного агента американского правительства Тома Сойера, бессмертного Дориана Грэя и доктора Джекила, время от времени перерождающегося в мистера Хайда. Дело в том, что Фантом собирается захватить бразды правления миром в свои руки, и для этого ему нужно поссорить нации между собой, развязав войну миров. А наши выдающиеся герои совместными усилиями должны обезвредить бандита...

Доп. информация: Сохранены и подписаны оригинальные чаптеры как на Blu-ray.

Качество: BDRip 1080p
Формат: MKV
Видео кодек: AVC
Аудио кодек: DTS / AC3
Видео: 1920x812 (2.35:1), 23.976 fps, ~16460 kbps avg
Аудио#1: Russian: 48 kHz, DTS, 3/2 (L,C,R,l,r) + LFE ch, ~768.00 kbps avg |Дубляж, Blu-ray CEE|
Аудио#2: Russian: 48 kHz, DTS, 3/2 (L,C,R,l,r) + LFE ch, ~768.00 kbps avg |Многоголосый закадровый|
Аудио#3: Russian: 48 kHz, DTS, 3/2 (L,C,R,l,r) + LFE ch, ~768.00 kbps avg |Одноголосый закадровый, А.Гаврилов|
Аудио#4: Russian: 48 kHz, DTS, 3/2 (L,C,R,l,r) + LFE ch, ~768.00 kbps avg |Одноголосый закадровый, Ю.Живов|
Аудио#5: Ukrainian: 48 kHz, AC3, 2/0 (L,R) ch, ~192.00 kbps avg |Дубляж, ICTV|
Аудио#6: Ukrainian: 48 kHz, AC3, 2/0 (L,R) ch, ~192.00 kbps avg |Двухголосый закадровый, 1+1|
Аудио#7: English: 48 kHz, DTS, 3/2 (L,C,R,l,r) + LFE ch, ~1509.00 kbps avg
Аудио#8: English: 48 kHz, AC3, 2/0 (L,R) ch, ~224.00 kbps avg |Комментарии режиссёра по спецэффектам|
Аудио#9: English: 48 kHz, AC3, 2/0 (L,R) ch, ~224.00 kbps avg |Комментарии продюсера|
General
Unique ID : 200248778685549263276424369142744551571 (0x96A6830D2C2C4FC6AF7E461E621D1093)
Complete name : /home/sb1855/files/The.League.Of.Extraordinary.Gentlemen.2003.1080p.BluRay.4xRus.2xUkr.3xEng.HDCLUB.mkv
Format : Matroska
Format version : Version 2
File size : 16.8 GiB
Duration : 1h 50mn
Overall bit rate : 21.8 Mbps
Movie name : The League Of Extraordinary Gentlemen (2003) - Release for HDCLUB
Encoded date : UTC 2014-10-08 22:44:05
Writing application : mkvmerge v5.7.0 ('The Whirlwind') built on Jul 8 2012 20:08:51
Writing library : libebml v1.2.3 + libmatroska v1.3.0

Video
ID : 1
Format : AVC
Format/Info : Advanced Video Codec
Format profile : High@L4.1
Format settings, CABAC : Yes
Format settings, ReFrames : 5 frames
Codec ID : V_MPEG4/ISO/AVC
Duration : 1h 50mn
Bit rate : 16.0 Mbps
Width : 1 920 pixels
Height : 812 pixels
Display aspect ratio : 2.35:1
Frame rate : 23.976 fps
Color space : YUV
Chroma subsampling : 4:2:0
Bit depth : 8 bits
Scan type : Progressive
Bits/(Pixel*Frame) : 0.429
Stream size : 12.3 GiB (73%)
Writing library : x264 core 133 r2334kMod a3ac64b
Encoding settings : opencl=1 / cabac=1 / ref=5 / deblock=1:-3:-3 / analyse=0x3:0x113 / me=umh / subme=10 / psy=1 / fade_compensate=0.00 / psy_rd=1.02:0.00 / mixed_ref=1 / me_range=16 / chroma_me=1 / trellis=2 / 8x8dct=1 / cqm=0 / deadzone=21,11 / fast_pskip=0 / chroma_qp_offset=-2 / threads=6 / lookahead_threads=1 / sliced_threads=0 / nr=0 / decimate=0 / interlaced=0 / bluray_compat=0 / constrained_intra=0 / bframes=8 / b_pyramid=2 / b_adapt=2 / b_bias=0 / direct=3 / weightb=1 / open_gop=0 / weightp=2 / keyint=250 / keyint_min=23 / scenecut=40 / intra_refresh=0 / rc=crf / mbtree=0 / crf=18.0000 / qcomp=0.70 / qpmin=0 / qpmax=69 / qpstep=4 / ip_ratio=1.30 / pb_ratio=1.20 / aq=1:0.80
Language : English
Default : Yes
Forced : No

Audio #1
ID : 2
Format : DTS
Format/Info : Digital Theater Systems
Codec ID : A_DTS
Duration : 1h 50mn
Bit rate mode : Constant
Bit rate : 754 Kbps
Channel(s) : 6 channels
Channel positions : Front: L C R, Side: L R, LFE
Sampling rate : 48.0 KHz
Bit depth : 24 bits
Compression mode : Lossy
Stream size : 594 MiB (3%)
Title : |??????, Blu-ray CEE|
Language : Russian
Default : Yes
Forced : No

Audio #2
ID : 3
Format : DTS
Format/Info : Digital Theater Systems
Codec ID : A_DTS
Duration : 1h 50mn
Bit rate mode : Constant
Bit rate : 754 Kbps
Channel(s) : 6 channels
Channel positions : Front: L C R, Side: L R, LFE
Sampling rate : 48.0 KHz
Bit depth : 24 bits
Compression mode : Lossy
Stream size : 594 MiB (3%)
Title : |???????????? ??????????|
Language : Russian
Default : No
Forced : No

Audio #3
ID : 4
Format : DTS
Format/Info : Digital Theater Systems
Codec ID : A_DTS
Duration : 1h 50mn
Bit rate mode : Constant
Bit rate : 754 Kbps
Channel(s) : 6 channels
Channel positions : Front: L C R, Side: L R, LFE
Sampling rate : 48.0 KHz
Bit depth : 24 bits
Compression mode : Lossy
Stream size : 594 MiB (3%)
Title : |??????????? ??????????, A.????????|
Language : Russian
Default : No
Forced : No

Audio #4
ID : 5
Format : DTS
Format/Info : Digital Theater Systems
Codec ID : A_DTS
Duration : 1h 50mn
Bit rate mode : Constant
Bit rate : 754 Kbps
Channel(s) : 6 channels
Channel positions : Front: L C R, Side: L R, LFE
Sampling rate : 48.0 KHz
Bit depth : 24 bits
Compression mode : Lossy
Stream size : 594 MiB (3%)
Title : |??????????? ??????????, ?.?????|
Language : Russian
Default : No
Forced : No

Audio #5
ID : 6
Format : AC-3
Format/Info : Audio Coding 3
Mode extension : CM (complete main)
Format settings, Endianness : Big
Codec ID : A_AC3
Duration : 1h 50mn
Bit rate mode : Constant
Bit rate : 192 Kbps
Channel(s) : 6 channels
Channel positions : Front: L C R, Side: L R, LFE
Sampling rate : 48.0 KHz
Bit depth : 16 bits
Compression mode : Lossy
Stream size : 151 MiB (1%)
Title : |??????, Blu-ray ICTV|
Language : Ukrainian
Default : No
Forced : No

Audio #6
ID : 7
Format : AC-3
Format/Info : Audio Coding 3
Mode extension : CM (complete main)
Format settings, Endianness : Big
Codec ID : A_AC3
Duration : 1h 50mn
Bit rate mode : Constant
Bit rate : 192 Kbps
Channel(s) : 2 channels
Channel positions : Front: L R
Sampling rate : 48.0 KHz
Bit depth : 16 bits
Compression mode : Lossy
Stream size : 151 MiB (1%)
Title : |??????????? ??????????, 1+1|
Language : Ukrainian
Default : No
Forced : No

Audio #7
ID : 8
Format : DTS
Format/Info : Digital Theater Systems
Codec ID : A_DTS
Duration : 1h 50mn
Bit rate mode : Constant
Bit rate : 1 510 Kbps
Channel(s) : 6 channels
Channel positions : Front: L C R, Side: L R, LFE
Sampling rate : 48.0 KHz
Bit depth : 24 bits
Compression mode : Lossy
Stream size : 1.16 GiB (7%)
Language : English
Default : No
Forced : No

Audio #8
ID : 9
Format : AC-3
Format/Info : Audio Coding 3
Mode extension : CM (complete main)
Format settings, Endianness : Big
Codec ID : A_AC3
Duration : 1h 50mn
Bit rate mode : Constant
Bit rate : 224 Kbps
Channel(s) : 2 channels
Channel positions : Front: L R
Sampling rate : 48.0 KHz
Bit depth : 16 bits
Compression mode : Lossy
Stream size : 176 MiB (1%)
Title : |Commentary by costume designer|
Language : English
Default : No
Forced : No

Audio #9
ID : 10
Format : AC-3
Format/Info : Audio Coding 3
Mode extension : CM (complete main)
Format settings, Endianness : Big
Codec ID : A_AC3
Duration : 1h 50mn
Bit rate mode : Constant
Bit rate : 224 Kbps
Channel(s) : 2 channels
Channel positions : Front: L R
Sampling rate : 48.0 KHz
Bit depth : 16 bits
Compression mode : Lossy
Stream size : 176 MiB (1%)
Title : |Commentary producers|
Language : English
Default : No
Forced : No

Text #1
ID : 11
Format : UTF-8
Codec ID : S_TEXT/UTF8
Codec ID/Info : UTF-8 Plain Text
Language : Russian
Default : No
Forced : No

Text #2
ID : 12
Format : UTF-8
Codec ID : S_TEXT/UTF8
Codec ID/Info : UTF-8 Plain Text
Language : Romanian
Default : No
Forced : No

Text #3
ID : 13
Format : UTF-8
Codec ID : S_TEXT/UTF8
Codec ID/Info : UTF-8 Plain Text
Language : English
Default : No
Forced : No

Menu
00:00:00.000 : en:On the Brink of War (Main Titles)
00:05:10.185 : en:Quatermain
00:09:11.676 : en:Armored Assassins
00:12:57.527 : en:The New League
00:20:45.119 : en:Mr. Dorian Gray
00:24:13.786 : en:The Fantom
00:28:46.266 : en:Mrs. Harker's Conduct
00:29:48.412 : en:The American Agent
00:33:06.818 : en:The Last Member
00:38:47.283 : en:Out of His League
00:40:54.118 : en:Voyage to Violence
00:43:39.033 : en:The Shooting Lesson
00:47:56.290 : en:The Portrait
00:52:26.477 : en:Death in Venice
01:01:14.212 : en:Behind the Mask
01:03:21.506 : en:Betrayed
01:06:00.790 : en:The Game Is Over
01:10:11.958 : en:Hyde the Hero
01:12:56.080 : en:The Message
01:16:31.754 : en:Waiting for Skinner
01:18:44.178 : en:A Fortress Vast
01:21:03.859 : en:The Game Is On
01:26:51.873 : en:The Napoleon of Crime
01:27:26.575 : en:A Woman's Wrath
01:29:19.354 : en:Invisible Enemy
01:31:41.996 : en:Meet Your Demon
01:33:46.162 : en:The Dante Beast
01:36:22.360 : en:Killing the Future
01:38:01.876 : en:The Long Shot
01:39:57.283 : en:A Hero's Bequest
01:42:10.624 : en:The Flame of Life
01:42:50.039 : en:End Titles

pb.wtf



Скачать Лига выдающихся джентльменов через торрент http://i66.fastpic.ru/big/2014/1009/c5/ed93f3c0359e357b9f3f31da8d6bb6c5.png Скачать фильм Лига выдающихся джентльменов через торрент бесплантно в хорошем качестве Описание: Прославленный авантюрист Аллан Куотермейн вступает в борьбу с международным террористом по прозвищу Фантом и за собой ведёт целый ... 9.8 10 17
Info! Золотая раздача, скачанное не засчитывается.
Торрент: Зарегистрирован [2014-10-09 14:38] · скачан: 117 раз
Статус: √ проверено
Размер: 16.8 GB
Как cкачать? Как скачать Лига выдающихся джентльменов через торрент | qTorrent

% Раздел Тема Автор DL S | L
Фильмы (HD 720p, 1080p) (48-60 fps) [ 3.52 GB ] Лига выдающихся джентльменов / The League of Extraordinary Gentlemen [2003 BDRip 720p / 60 FPS ] от R.G. HD-Films slaventi-69 Скачать
12 | 0
Фильмы до 2000 г. [ 3.27 GB ] Лига выдающихся джентльменов / The League of Extraordinary Gentlemen [2003 BDRip-AVC] DUB MVO 2 x AVO msltel Скачать
1 | 0
Фильмы [HD 720p, 1080p] (Хороший звук DUB, MVO) [ 4.27 GB ] Лига выдающихся джентльменов / The League of Extraordinary Gentlemen [2003 BDRip 720p] DUB MVO 2 x AVO msltel Скачать
1 | 0
Фильмы с авторской озвучкой [ 2.2 GB ] Лига выдающихся джентльменов / The League of Extraordinary Gentlemen [2003 BDRip] 2x[AVO] killermax2013 Скачать
1 | 0
Фильмы 2001-2005 [ 2.18 GB ] Лига выдающихся джентльменов / The League of extraordinary gentlemen [2003 HDRip] .::Sergey::. Скачать
1 | 0
Фильмы [HD 720p, 1080p] (Хороший звук DUB, MVO) [ 9.31 GB ] Лига выдающихся джентльменов / The League of Extraordinary Gentlemen [2003 BDRip DUB ] VintMosina Скачать
1 | 1
Фильмы 2001-2005 [ 2.18 GB ] Лига выдающихся джентльменов / League of Extraordinary Gentlemen The [2003 Фэнтази BDRip] Joup Скачать
1 | 0

28-11-2019 20:33  

Отключить всю рекламу на сайте

    Дорогой пользователь! Огромная просьба, поблагодарите релизера, оцените раздачу и оставьте свои комментарий, если Вы скачали Лига выдающихся джентльменов через торрент бесплатно! Внесите свою лепту в развитие PiratBit!
    Комментировать посты могут только пользователи прошедшие не сложную регистрацию
    Показать сообщения:    

    Лига выдающихся джентльменов через торрент
    Скачать бесплатно Лига выдающихся джентльменов
    Лига выдающихся джентльменов скачать торрент
    Лига выдающихся джентльменов смотреть онлайн
    Cкачать фильм Лига выдающихся джентльменов бесплатно
    Лига выдающихся джентльменов скачать торрент в хорошем качестве
    Лига выдающихся джентльменов смотреть онлайн бесплатно в хорошем качестве


    Вы не можете начинать темы
    Вы не можете отвечать на сообщения
    Вы не можете редактировать свои сообщения
    Вы не можете удалять свои сообщения
    Вы не можете голосовать в опросах
    Вы не можете прикреплять файлы к сообщениям
    Вы можете скачивать файлы