Всегда рабочее зеркало просто перед .vidak.icu напиши любое слово или цифру, Пример http://91l.vidak.icu

>

7.4

iTunes

7.4

2 сезон

6.6

iTunes

1

7.4

2 сезон

7.2

iTunes

6.0

MVO

13

6.1

iTunes

8.3

Пиратка

30

ULTIMATE

pack

9.9

Лицензия

ВАЖНО

ИГРА 18+

pack

7.3

RePack

MK11

7.7

RePack

jed

7.8

RePack

fifa19

8.5

RePack

RDR2

RePack

NEED FOR SPEED™ PAYBACK

1 сезон

9 сезон

Бесстыжие 9 сезон

Все сериалы

все сериалы на PB.wtf

RePack

FAR CRY 5

Anonymous, доброй ночи, мы катастрофически не успеваем собрать деньги на оплату серверов, помогите нам пожалуйста 5,10,15р., для нас важна любая помощь . В качестве благодарности мы отключим Вам всю рекламу на сайте (укажите свой ник в строку Ваше имя)!

×
  
Magnet ссылка

Афера по-американски / American Hustle (Дэвид О. Расселл / David O. Russell) [2013, драма, комедия, BDRip] [AVO] (А.Гаврилов) pb.wtf

Афера по-американски через торрент pb.wtf

Размер: 1.46 GB | Добавлен: 7 лет 3 мес. назад | Торрент скачан:97 раз
Смотреть онлайн Афера по-американски | Скачать    Ребята, помогите собрать деньги на оплату серверов!!!

03-10-2014 19:03 Афера по-американски Скачать торрент  

Афера по-американски / American Hustle
«Everyone Hustles To Survive»


Год выпуска: 2013
Страна: США / Annapurna Pictures, Atlas Entertainment, Columbia Pictures
Жанр: драма, комедия
Продолжительность: 02:17:54
Перевод: Авторский (одноголосый, закадровый) [А.Гаврилов]
Cубтитры: нет

Режиссёр: Дэвид О. Расселл / David O. Russell

В ролях: Кристиан Бэйл, Эми Адамс, Брэдли Купер, Дженнифер Лоуренс, Джереми Реннер, Луис С.К., Алессандро Нивола, Джек Хьюстон, Роберт Де Ниро, Майкл Пенья, Ши Уигхэм, Элизабет Рём, Пол Херман, Саид Тагмауи, Мэттью Расселл, Томас Мэтьюз, Адриан Мартинес.

Описание: В основе сюжета фильма реальная спецоперация, проводимая в конце 70-х — начале 80-х ФБР под кодовым названием Abscam. Она изначально была нацелена на расследование торговли краденым товаром. ФБР собиралось внедрить в преступную среду своих агентов под видом посредников, скупающих краденые шедевры для богатых коллекционеров Ближнего Востока. Впоследствии операция превратилась в изобличение коррупции на разных уровнях.

СЭМПЛ

Качество: BDRip
Формат: AVI
Видео кодек: XviD
Аудио кодек: AC3
Видео: XviD build 65, 720x304 (2.37:1), 23.976 fps, ~1318 kbps avg, 0.251 bit/pixel
Аудио: 48 kHz, AC3 Dolby Digital, 2/0 (L,R) ch, ~192 kbps avg (AVO)
Общее
Полное имя : D:\American.Hustle.2013.NOR-Transfer.AVO.Gavrilov.BDRip.1,46Gb.XviD.AC3.avi
Формат : AVI
Формат/Информация : Audio Video Interleave
Размер файла : 1,46 Гбайт
Продолжительность : 2 ч. 17 м.
Общий поток : 1519 Кбит/сек
Название фильма : American Hustle 2013. [NOR-Transfer]
Режиссёр : David O. Russell
Дата записи : 02.10.2014
Программа кодирования : VirtualDubModRus 1.5.10.2 (build 2542/release)
Библиотека кодирования : VirtualDubMod build 2542/release

Видео
Идентификатор : 0
Формат : MPEG-4 Visual
Профиль формата : Advanced Simple@L5
Параметр BVOP формата : 1
Параметр QPel формата : Нет
Параметр GMC формата : Без точки перехода
Параметр матрицы формата : Выборочная
Идентификатор кодека : XVID
Идентификатор кодека/Подсказка : XviD
Продолжительность : 2 ч. 17 м.
Битрейт : 1318 Кбит/сек
Ширина : 720 пикселей
Высота : 304 пикселя
Соотношение сторон : 2,35:1
Частота кадров : 23,976 кадра/сек
Цветовое пространство : YUV
Субдискретизация насыщенности : 4:2:0
Битовая глубина : 8 бит
Тип развёртки : Прогрессивная
Метод сжатия : С потерями
Бит/(Пиксели*Кадры) : 0.251
Размер потока : 1,27 Гбайт (87%)
Библиотека кодирования : XviD 65
Аудио
Идентификатор : 1
Формат : AC-3
Формат/Информация : Audio Coding 3
Расширение режима : CM (complete main)
Параметр Endianness формата : Big
Идентификатор кодека : 2000
Продолжительность : 2 ч. 17 м.
Вид битрейта : Постоянный
Битрейт : 192 Кбит/сек
Каналы : 2 канала
Расположение каналов : Front: L R
Частота : 48,0 КГц
Битовая глубина : 16 бит
Метод сжатия : С потерями
Размер потока : 189 Мбайт (13%)
Выравнивание : Разделение по промежуткам
Продолжительность промежутка : 42 мс. (1,00 видеокадр)
Время предзагрузки промежутка : 500 мс.
Заголовок : AVO
pb.wtf



Скачать Афера по-американски через торрент http://i64.fastpic.ru/big/2014/1003/04/0c09266a465786ce6349b80a19ba3404.jpg Скачать, смотреть онлайн Афера по-американски бесплантно в хорошем качестве Описание: В основе сюжета фильма реальная спецоперация, проводимая в конце 70-х — начале 80-х ФБР под кодовым названием Abscam. Она ... 8.9 10 7
Торрент: Зарегистрирован [2014-10-09 18:10] · скачан: 97 раз
Статус: √ проверено
Размер: 1.46 GB
Как cкачать? Как скачать Афера по-американски через торрент | UTorrent

% Раздел Тема Автор DL S | L
Порно фильмы с русским переводом [ 2.55 GB ] Афера по-американски / American Hustle XXX Porn Parody [2014 Feature WEB-DL ] nn99nn Скачать
2 | 0
Фильмы 2013 [DVDrip, WEB-DLRip, HDrip] [ 1.58 GB ] Афера по-американски / American Hustle [2013 BDRip by keeper.52] DUB + Original + Sub keeper.52 Скачать
1 | 0
Фильмы 2013 [DVDrip, WEB-DLRip, HDrip] [ 2.62 GB ] Афера по-американски / American Hustle [2013 BDRip-AVC by keeper.52] DUB + Original + Sub keeper.52 Скачать
1 | 0
Фильмы 2013 [DVDrip, WEB-DLRip, HDrip] [ 2.62 GB ] Афера по-американски / American Hustle [2013 BDRip by keeper.52] DUB + Original + Sub keeper.52 Скачать
1 | 0
Порно фильмы с сюжетом [ 2.52 GB ] Афера по-американски XXX / American Hustle XXX [2014 Порно-пародия WEB-DLRip Оригинал] Magnat Скачать
1 | 0
Фильмы 2013 [DVDrip, WEB-DLRip, HDrip] [ 2.91 GB ] Афера по-американски / American Hustle [2013 BDRip-AVC] DUB potroks Скачать
1 | 0
Фильмы 2013 [DVDrip, WEB-DLRip, HDrip] [ 2.18 GB ] Афера по-американски / American Hustle [2013 HDRip-AVC ] + Ukr + Sub White Smoke Скачать
1 | 0

28-11-2019 20:33  

Отключить всю рекламу на сайте

    Дорогой пользователь! Огромная просьба, поблагодарите релизера, оцените раздачу и оставьте свои комментарий, если Вы скачали Афера по-американски через торрент бесплатно!
    Комментировать посты могут только пользователи прошедшие не сложную регистрацию
    Показать сообщения:    

    Афера по-американски через торрент
    Скачать бесплатно Афера по-американски
    Афера по-американски скачать торрент
    Афера по-американски смотреть онлайн
    Cкачать фильм Афера по-американски бесплатно
    Афера по-американски скачать торрент в хорошем качестве
    Афера по-американски смотреть онлайн бесплатно в хорошем качестве


    Вы не можете начинать темы
    Вы не можете отвечать на сообщения
    Вы не можете редактировать свои сообщения
    Вы не можете удалять свои сообщения
    Вы не можете голосовать в опросах
    Вы не можете прикреплять файлы к сообщениям
    Вы можете скачивать файлы