Достать ножи: Стеклянная луковица

MVO

Добыча

Дубляж

Уэнсдэй

1 сезон

Тор

Дубляж

13 клиническая

1 сезон

Жестокая ночь

MVO

Одни из нас

1 сезон

Deluxe

pack

Рекомендуем

30

Пиратка

ВАЖНО

ВАЖНО

Ghostwire

Пиратка

jed

RePack

nioh2

RePack

RDR2

RePack

NEED FOR SPEED™ PAYBACK

RePack

скачать торрент

Кинопоиск HD

Острые козырьки 6 сезон

6 сезон

FAR CRY 6

RePack

скачать торрент

Лицензия

скачать торрент

MVO

1

1 сезон

скачать торрент

1 сезон

скачать торрент

Лицензия

  

Красотки в Париже / Sous les jupes des filles (Одри Дана / Audrey Dana) [2014, Комедия, BDRip-AVC] MVO [Лицензия]

Красотки в Париже через торрент pb.wtf

Размер: 2.18 GB | Добавлен: 8 лет 3 мес. назад | Торрент скачан:700 раз
Смотреть онлайн | Скачать | Поддержите нас   

10-10-2014 06:53 Красотки в Париже Скачать торрент  

Красотки в Париже / Sous les jupes des filles
Год выпуска: 2014
Страна: Франция / Fidélité Films, Wild Bunch, M6, M6 Films, Palatine Еtoile 11...
Жанр: Комедия
Продолжительность: 01:56:02
Перевод: Профессиональный многоголосый [R5]
Субтитры: Русские

Режиссер: Одри Дана / Audrey Dana

В ролях: Ванесса Паради, Изабель Аджани, Летиция Каста, Сильви Тестю, Марина Хэндс, Алис Белаиди, Жеральдин Накаш, Жюли Ферье, Одри Флеро, Одри Дана...

Описание: Париж. Любовь. И, конечно, француженки: свободные, непредсказуемые, изысканные и страстные. Сегодня они решили раскрыть свои секреты и поделиться желаниями. Это комедия о любви, сексе и поцелуях, о том, чего и кого хотят женщины.



Качество: BDRip-AVC
Формат: MKV
Видео кодек: H.264
Аудио кодек: AC3
Видео: 1032x432 (2,40:1), 24,000 fps, 1793 kbps, 0.168 bit/pixel
Аудио#1: 48 kHz, AC3 Dolby Digital, 3/2 (L,C,R,l,r) + LFE ch, 448.00 kbps | RUS
Аудио#2: 48 kHz, AC3 Dolby Digital, 3/2 (L,C,R,l,r) + LFE ch, 448.00 kbps | FRE

Релиз группы:
Автор рипа: potroks

Общее
Уникальный идентификатор : 174632993359290947863687133730595890637 (0x8361175390DB19B4AF149CE0935765CD)
Полное имя : F:\Комедия\Krasotki.v.Parizhe.2014.DUAL.BDRip.x264.-HELLYWOOD.mkv
Формат : Matroska
Версия формата : Version 4 / Version 2
Размер файла : 2,18 Гбайт
Продолжительность : 1 ч. 56 м.
Общий поток : 2691 Кбит/сек
Название фильма : Sous les jupes des filles (2014) - HELLYWOOD
Дата кодирования : UTC 2014-10-10 06:01:02
Программа кодирования : mkvmerge v5.9.0 ('On The Loose') built on Dec 15 2012 16:39:58
Библиотека кодирования : libebml v1.3.0 + libmatroska v1.4.0

Видео
Идентификатор : 1
Формат : AVC
Формат/Информация : Advanced Video Codec
Профиль формата : [email protected]
Параметр CABAC формата : Да
Параметр ReFrames формата : 9 кадров
Идентификатор кодека : V_MPEG4/ISO/AVC
Продолжительность : 1 ч. 56 м.
Битрейт : 1793 Кбит/сек
Ширина : 1032 пикселя
Высота : 432 пикселя
Соотношение сторон : 2,40:1
Режим частоты кадров : Постоянный
Частота кадров : 24,000 кадра/сек
Цветовое пространство : YUV
Субдискретизация насыщенности : 4:2:0
Битовая глубина : 8 бит
Тип развёртки : Прогрессивная
Бит/(Пиксели*Кадры) : 0.168
Размер потока : 1,41 Гбайт (65%)
Заголовок : potroks
Библиотека кодирования : x264 core 128 r2216M 198a7ea
Настройки программы : cabac=1 / ref=10 / deblock=1:-2:-2 / analyse=0x3:0x133 / me=umh / subme=11 / psy=1 / psy_rd=1.05:0.00 / mixed_ref=1 / me_range=48 / chroma_me=1 / trellis=2 / 8x8dct=1 / cqm=0 / deadzone=21,11 / fast_pskip=0 / chroma_qp_offset=-2 / threads=6 / lookahead_threads=1 / sliced_threads=0 / nr=0 / decimate=0 / interlaced=0 / bluray_compat=0 / constrained_intra=0 / bframes=11 / b_pyramid=1 / b_adapt=2 / b_bias=0 / direct=3 / weightb=1 / open_gop=0 / weightp=2 / keyint=250 / keyint_min=22 / scenecut=40 / intra_refresh=0 / rc_lookahead=120 / rc=2pass / mbtree=0 / bitrate=1793 / ratetol=1.0 / qcomp=0.70 / qpmin=0 / qpmax=69 / qpstep=4 / cplxblur=20.0 / qblur=0.5 / vbv_maxrate=50000 / vbv_bufsize=62500 / nal_hrd=none / ip_ratio=1.35 / pb_ratio=1.25 / aq=1:0.83
Язык : French
Default : Да
Forced : Нет

Аудио #1
Идентификатор : 2
Формат : AC-3
Формат/Информация : Audio Coding 3
Расширение режима : CM (complete main)
Параметр Endianness формата : Big
Идентификатор кодека : A_AC3
Продолжительность : 1 ч. 56 м.
Вид битрейта : Постоянный
Битрейт : 448 Кбит/сек
Каналы : 6 каналов
Расположение каналов : Front: L C R, Side: L R, LFE
Частота : 48,0 КГц
Битовая глубина : 16 бит
Метод сжатия : С потерями
Размер потока : 372 Мбайт (17%)
Заголовок : MVO | DD 5.1 @ 448 kbps - R5
Язык : Russian
Default : Да
Forced : Нет

Аудио #2
Идентификатор : 3
Формат : AC-3
Формат/Информация : Audio Coding 3
Расширение режима : CM (complete main)
Параметр Endianness формата : Big
Идентификатор кодека : A_AC3
Продолжительность : 1 ч. 56 м.
Вид битрейта : Постоянный
Битрейт : 448 Кбит/сек
Каналы : 6 каналов
Расположение каналов : Front: L C R, Side: L R, LFE
Частота : 48,0 КГц
Битовая глубина : 16 бит
Метод сжатия : С потерями
Размер потока : 372 Мбайт (17%)
Заголовок : Original | DD 5.1 @ 448 kbps
Язык : French
Default : Нет
Forced : Нет

Текст
Идентификатор : 4
Формат : UTF-8
Идентификатор кодека : S_TEXT/UTF8
Идентификатор кодека/Информация : UTF-8 Plain Text
Язык : Russian
Default : Нет
Forced : Нет

Меню
00:00:00.000 : en:00:00:00.000
00:07:54.042 : en:00:07:54.042
00:14:27.792 : en:00:14:27.792
00:21:30.583 : en:00:21:30.583
00:29:24.417 : en:00:29:24.417
00:37:24.125 : en:00:37:24.125
00:46:31.375 : en:00:46:31.375
00:55:32.125 : en:00:55:32.125
01:06:00.000 : en:01:06:00.000
01:14:11.458 : en:01:14:11.458
01:22:10.208 : en:01:22:10.208
01:29:46.958 : en:01:29:46.958
01:37:39.250 : en:01:37:39.250
01:45:19.042 : en:01:45:19.042
01:50:20.167 : en:01:50:20.167
01:52:57.208 : en:01:52:57.208




Скачать Красотки в Париже через торрент https://pic1.kartinco.top/images/71/do7j5.jpg Скачать, смотреть онлайн Красотки в Париже бесплантно в хорошем качестве Описание: Париж. Любовь. И, конечно, француженки: свободные, непредсказуемые, изысканные и страстные. Сегодня они решили раскрыть свои ... 9.9 10 9
Торрент: Зарегистрирован [2014-10-10 06:53] · скачан: 700 раз
Статус: √ проверено
Размер: 2.18 GB
Как cкачать? Как скачать Красотки в Париже через торрент | UTorrent

% Раздел Тема Автор DL S | L
Фильмы (DVD фильмы) [ 6.02 GB ] Красотки в Париже / Sous les jupes des filles | | 2014, комедия, DVD9 voovaz Скачать
1 | 0

28-11-2019 20:33  


Отключить вcю реклaмy на сайте, в т.ч. и в плеере онлайн просмотра!

    Дорогой пользователь! Огромная просьба, поблагодарите релизера, оцените раздачу и оставьте свои комментарий, если Вы скачали Красотки в Париже через торрент бесплатно!!
    Комментировать посты могут только пользователи прошедшие не сложную регистрацию
    Показать сообщения:    


    Красотки в Париже через торрент
    Скачать бесплатно Красотки в Париже
    Красотки в Париже скачать торрент
    Красотки в Париже смотреть онлайн
    Cкачать фильм Красотки в Париже бесплатно
    Красотки в Париже скачать торрент в хорошем качестве
    Красотки в Париже смотреть онлайн бесплатно в хорошем качестве
    Вы не можете начинать темы
    Вы не можете отвечать на сообщения
    Вы не можете редактировать свои сообщения
    Вы не можете удалять свои сообщения
    Вы не можете голосовать в опросах
    Вы не можете прикреплять файлы к сообщениям
    Вы можете скачивать файлы
    Красотки в Париже / Sous les jupes des filles [2014, Комедия, BDRip-AVC] MVO [Лицензия] смотреть онлайн, скачать торрент picoco.icu