2 сезон

iTunes

1 сезон

1

iTunes

iTunes

iTunes

1 сезон

RePack

30

ИГРА 18+

pack

ВАЖНО

!!Акция!!

Alien_RageХит недели

RePack

MK11
pack

Забери бонус

RePack

jed

!!Акция!!

Alien_Rage

RePack

fifa19

RePack

Assassins Creed: Odyssey

RePack

NEED FOR SPEED™ PAYBACK

4 сезон

9 сезон

Бесстыжие 9 сезон

Все сериалы

все сериалы на PB.wtf

RePack

FAR CRY 5
  

Во имя отца / In the Name of the Father (Джим Шеридан) [1993, драма, биография, история, BDRip 1080p] MVO, AVO, VO pb.wtf

Во имя отца через торрент pb.wtf

Размер: 17.48 GB | Добавлен: 6 лет назад | Торрент скачан:7 раз
Скачать  

10-10-2014 14:34 Во имя отца Скачать торрент  

Во имя отца / In the Name of the Father

Год выпуска: 1993
Страна: Великобритания, Ирландия
Жанр: драма, биография, история
Продолжительность: 02:12:51
Перевод: Профессиональный многоголосый, авторский, одноголосый закадровый
Субтитры: русские, английские (для слабослышащих) (все отдельно)

Режиссёр: Джим Шеридан

В ролях: Дэниэл Дэй-Льюис, Пит Постлетуэйт, Эмма Томпсон, Джон Линч, Марк Шеппард, Бети Эдни, Мэри Джонс, Бритта Смит, Корин Редгрейв, Лу Кастель, Джо Коннор, Карен Карлайл, Симус Моран, Билли Бирн, Морин МакБрайд, Джейн Нолан, Лоуренс Гриффин

Описание: Эта драма основана на реальных событиях — истории «Гилфордской четверки». В 1975 году молодой ирландец Джерри Конлон был приговорен английским правосудием к пожизненному заключению за покушение, которое он не совершал. Трое его друзей, его отец, тетя, племянница и племянник также осуждены за соучастие. Адвокат Гэрит Перси пытается добиться пересмотра дела...



Качество: BDRip 1080p Сравнение с исходником
Формат: MKV
Видео кодек: H.264
Видео: 1920x1040, 14.8 Mbps, 23.976 кадра/с, 0.309 bpp
Аудио 1: русский, AC3, 448 kbps, 2 ch, 48 kHz [профессиональный многоголосый]
Аудио 2: русский, AC3, 192 kbps, 2 ch, 48 kHz [авторский, Андрей Гаврилов]
Аудио 3: русский, DTS, 1509 kbps, 6 ch, 48 kHz [одноголосый закадровый, Алексей Наследников - MrRose, с ненормативной лексикой]
Аудио 4: английский, DTS, 1509 kbps, 6 ch, 48 kHz [оригинал]

Имеются неименованные главы/чаптеры.

Автор рипа msltel
«Давид Донателло» за лучший иностранный фильм в Италии в 1994 году.

Оскар, 1994 год
Номинации (7):
Лучший фильм
Лучшая мужская роль (Дэниэл Дэй-Льюис)
Лучшая мужская роль второго плана (Пит Постлетуэйт)
Лучшая женская роль второго плана (Эмма Томпсон)
Лучший режиссер (Джим Шеридан)
Лучший адаптированный сценарий
Лучший монтаж

Золотой глобус, 1994 год
Номинации (4):
Лучший фильм (драма)
Лучшая мужская роль (драма) (Дэниэл Дэй-Льюис)
Лучшая женская роль второго плана (Эмма Томпсон)
Лучшая песня — «(You Made Me the) Thief of Your Heart»

Британская академия, 1994 год
Номинации (2):
Лучшая мужская роль (Дэниэл Дэй-Льюис)
Лучший адаптированный сценарий

Берлинский кинофестиваль, 1994 год
Победитель (1):
Золотой Медведь

Европейская киноакадемия, 1994 год
Номинации (1):
Лучший фильм
frame I:1428 Avg QP:16.52 size:173619
frame P:33779 Avg QP:17.18 size:119811
frame B:155924 Avg QP:19.20 size: 69449

Общее
Уникальный идентификатор : 200717732419047590800138619986114807917 (0x9700D44170A27CCB8327F6380B64886D)
Полное имя : D:VideoVo imja otca.1993.BDRip.1080p.mkv
Формат : Matroska
Версия формата : Version 4 / Version 2
Размер файла : 17,5 Гбайт
Продолжительность : 2 ч. 12 м.
Общий поток : 18,8 Мбит/сек
Дата кодирования : UTC 2014-10-10 12:43:25
Программа кодирования : mkvmerge v6.9.1 ('Blue Panther') 64bit built on Apr 18 2014 18:23:38
Библиотека кодирования : libebml v1.3.0 + libmatroska v1.4.1

Видео
Идентификатор : 1
Формат : AVC
Формат/Информация : Advanced Video Codec
Профиль формата : High@L4.1
Параметр CABAC формата : Да
Параметр ReFrames формата : 4 кадра
Идентификатор кодека : V_MPEG4/ISO/AVC
Продолжительность : 2 ч. 12 м.
Битрейт : 14,8 Мбит/сек
Ширина : 1920 пикселей
Высота : 1040 пикселей
Соотношение сторон : 1,85:1
Режим частоты кадров : Постоянный
Частота кадров : 23,976 кадра/сек
Цветовое пространство : YUV
Субдискретизация насыщенности : 4:2:0
Битовая глубина : 8 бит
Тип развёртки : Прогрессивная
Бит/(Пиксели*Кадры) : 0.309
Размер потока : 13,7 Гбайт (79%)
Заголовок : BDRip -- STarankov
Библиотека кодирования : x264 core 142 r2431 ac76440
Настройки программы : cabac=1 / ref=4 / deblock=1:-1:-1 / analyse=0x3:0x113 / me=umh / subme=10 / psy=1 / psy_rd=1.00:0.15 / mixed_ref=1 / me_range=32 / chroma_me=1 / trellis=2 / 8x8dct=1 / cqm=0 / deadzone=21,11 / fast_pskip=1 / chroma_qp_offset=-3 / threads=6 / lookahead_threads=1 / sliced_threads=0 / nr=0 / decimate=1 / interlaced=0 / bluray_compat=0 / constrained_intra=0 / bframes=8 / b_pyramid=2 / b_adapt=2 / b_bias=0 / direct=3 / weightb=1 / open_gop=0 / weightp=2 / keyint=230 / keyint_min=23 / scenecut=40 / intra_refresh=0 / rc_lookahead=40 / rc=crf / mbtree=0 / crf=18.3 / qcomp=0.60 / qpmin=0 / qpmax=69 / qpstep=4 / vbv_maxrate=40000 / vbv_bufsize=50000 / crf_max=0.0 / nal_hrd=none / filler=0 / ip_ratio=1.40 / pb_ratio=1.30 / aq=1:1.00
Язык : English
Default : Да
Forced : Нет

Аудио #1
Идентификатор : 2
Формат : AC-3
Формат/Информация : Audio Coding 3
Профиль формата : Dolby Digital
Расширение режима : CM (complete main)
Параметр Endianness формата : Big
Идентификатор кодека : A_AC3
Продолжительность : 2 ч. 12 м.
Вид битрейта : Постоянный
Битрейт : 448 Кбит/сек
Каналы : 2 канала
Расположение каналов : Front: L R
Частота : 48,0 КГц
Битовая глубина : 16 бит
Метод сжатия : С потерями
Размер потока : 426 Мбайт (2%)
Заголовок : MVO
Язык : Russian
Default : Да
Forced : Нет

Аудио #2
Идентификатор : 3
Формат : AC-3
Формат/Информация : Audio Coding 3
Профиль формата : Dolby Digital
Расширение режима : CM (complete main)
Параметр Endianness формата : Big
Идентификатор кодека : A_AC3
Продолжительность : 2 ч. 12 м.
Вид битрейта : Постоянный
Битрейт : 192 Кбит/сек
Каналы : 2 канала
Расположение каналов : Front: L R
Частота : 48,0 КГц
Битовая глубина : 16 бит
Метод сжатия : С потерями
Размер потока : 182 Мбайт (1%)
Заголовок : AVO (Андрей Гаврилов)
Язык : Russian
Default : Нет
Forced : Нет

Аудио #3
Идентификатор : 4
Формат : DTS
Формат/Информация : Digital Theater Systems
Режим : 16
Параметр Endianness формата : Big
Идентификатор кодека : A_DTS
Продолжительность : 2 ч. 12 м.
Вид битрейта : Постоянный
Битрейт : 1509 Кбит/сек
Каналы : 6 каналов
Расположение каналов : Front: L C R, Side: L R, LFE
Частота : 48,0 КГц
Битовая глубина : 24 бит
Метод сжатия : С потерями
Размер потока : 1,40 Гбайт (8%)
Заголовок : VO (одноголосый закадровый, А.Наследников (MrRose), с ненормативной лексикой)
Язык : Russian
Default : Нет
Forced : Нет

Аудио #4
Идентификатор : 5
Формат : DTS
Формат/Информация : Digital Theater Systems
Режим : 16
Параметр Endianness формата : Big
Идентификатор кодека : A_DTS
Продолжительность : 2 ч. 12 м.
Вид битрейта : Постоянный
Битрейт : 1509 Кбит/сек
Каналы : 6 каналов
Расположение каналов : Front: L C R, Side: L R, LFE
Частота : 48,0 КГц
Битовая глубина : 24 бит
Метод сжатия : С потерями
Размер потока : 1,40 Гбайт (8%)
Заголовок : Original
Язык : English
Default : Нет
Forced : Нет

Текст #1
Идентификатор : 6
Формат : UTF-8
Идентификатор кодека : S_TEXT/UTF8
Идентификатор кодека/Информация : UTF-8 Plain Text
Заголовок : русский
Язык : Russian
Default : Нет
Forced : Нет

Текст #2
Идентификатор : 7
Формат : UTF-8
Идентификатор кодека : S_TEXT/UTF8
Идентификатор кодека/Информация : UTF-8 Plain Text
Заголовок : английский (для слабослышащих)
Default : Нет
Forced : Нет

Меню
00:00:00.000 : :Chapter 01
00:05:58.941 : :Chapter 02
00:09:53.801 : :Chapter 03
00:22:33.393 : :Chapter 04
00:29:33.980 : :Chapter 05
00:39:09.805 : :Chapter 06
00:42:27.253 : :Chapter 07
00:51:01.266 : :Chapter 08
01:03:46.697 : :Chapter 09
01:16:33.964 : :Chapter 10
01:32:49.564 : :Chapter 11
01:45:25.193 : :Chapter 12
01:50:05.932 : :Chapter 13
01:56:33.486 : :Chapter 14
02:05:05.956 : :Chapter 15
02:07:14.126 : :Chapter 16
02:12:51.546 : :Chapter 17
pb.wtf



Скачать Во имя отца через торрент http://i68.fastpic.ru/big/2014/1010/be/038ffe635dbac7ef039287ece4c11fbe.jpg Скачать фильм Во имя отца через торрент бесплантно в хорошем качестве Описание: Эта драма основана на реальных событиях — истории «Гилфордской четверки». В 1975 году молодой ирландец Джерри Конлон был ... 7.5 10 2
Info! Золотая раздача, скачанное не засчитывается.
Торрент: Зарегистрирован [2014-10-10 14:34] · скачан: 7 раз
Статус: √ проверено
Размер: 17.48 GB
Как cкачать? Как скачать Во имя отца через торрент | qTorrent

% Раздел Тема Автор DL S | L
Фильмы [HD 720p, 1080p] (Хороший звук DUB, MVO) [ 7.99 GB ] Во имя отца / In the Name of the Father [1993 биография история BDRip 720p] MVO AVO VO msltel Скачать
1 | 0

28-11-2019 20:33  

Отключить всю рекламу на сайте

    Дорогой пользователь! Огромная просьба, поблагодарите релизера, оцените раздачу и оставьте свои комментарий, если Вы скачали Во имя отца через торрент бесплатно! Внесите свою лепту в развитие PiratBit!
    Комментировать посты могут только пользователи прошедшие не сложную регистрацию
    Показать сообщения:    

    Во имя отца через торрент
    Скачать бесплатно Во имя отца
    Во имя отца скачать торрент
    Во имя отца смотреть онлайн
    Cкачать фильм Во имя отца бесплатно
    Во имя отца скачать торрент в хорошем качестве
    Во имя отца смотреть онлайн бесплатно в хорошем качестве


    Вы не можете начинать темы
    Вы не можете отвечать на сообщения
    Вы не можете редактировать свои сообщения
    Вы не можете удалять свои сообщения
    Вы не можете голосовать в опросах
    Вы не можете прикреплять файлы к сообщениям
    Вы можете скачивать файлы