Ссылка на приватное зеркало нашего сайта всего за 1$. Внимание количество ограничено!!!

2 сезон

iTunes

1 сезон

1

iTunes

iTunes

iTunes

1 сезон

RePack

30

ИГРА 18+

pack

ВАЖНО

!!Акция!!

Alien_RageХит недели

RePack

MK11
pack

Забери бонус

RePack

jed

!!Акция!!

Alien_Rage

RePack

fifa19

RePack

Assassins Creed: Odyssey

RePack

NEED FOR SPEED™ PAYBACK

4 сезон

9 сезон

Бесстыжие 9 сезон

Все сериалы

все сериалы на PB.wtf

RePack

FAR CRY 5
  

Еще одна из рода Болейн / The Other Boleyn Girl (Джастин Чадвик ) [2008, драма, мелодрама, биография, история, BDRip 1080p] DUB / Лицензия pb.wtf

Еще одна из рода Болейн через торрент pb.wtf

Размер: 7.76 GB | Добавлен: 6 лет назад | Торрент скачан:141 раз
Скачать  

11-10-2014 07:06 Еще одна из рода Болейн Скачать торрент  

Информация о фильме

Русское название: Еще одна из рода Болейн
Оригинальное название: The Other Boleyn Girl
Год выхода: 2008
Жанр: драма, мелодрама, биография, история
Режиссер: Джастин Чадвик
Выпущено: США, Великобритания
Продолжительность: 01:55:35
Перевод: Дублированный
В ролях: Натали Портман, Скарлетт Йоханссон, Эрик Бана, Джим Старгесс, Марк Райлэнс, Кристин Скотт Томас, Дэвид Морисси, Бенедикт Камбербэтч, Оливер Коулмэн, Ана Торрент, Эдди Редмэйн, Том Кокс, Майкл Смайли, Монтсеррат Ройг Де Пуг, Джуно Темпл, Айэйн Митчел, Эндрю Гарфилд, Льюис Джонс, Corinne Galloway, Alfie Owen-Allen, Тиффани Фрайзберг


Сюжет фильма

Анна и Мария Болейн, движимые слепой амбицией своей семьи, борются за внимание и благосклонность короля Генриха VIII. И хотя обе сестры разделят с ним ложе, только одной из них суждено подняться на трон для непродолжительного царствия.


Файл

Качество: BDRip 1080p
Формат: AVC (библиотека кодирования x.264)
Контейнер (Расширение): MKV
Видео кодек: AVC
Аудио кодек:AC3
Видео: 1920x1040, 8525 Кбит/сек, 23,976 кадр/сек, AVC, x264, High@L4.1, 1.85:1, 0.178 Бит/[Пиксели*Кадры]
Аудио 1: AC-3, 448 Кбит/сек, 6 канала(ов), 48,0 КГц - Дублированный / Русский
Аудио 2: AC-3, 640 Кбит/сек, 6 канала(ов), 48,0 КГц - Оригинал / Английский
Субтитры: Русские | Полные, Английские | Полные
Навигация по главам: Есть






Сэмпл




Автор Рипа: Сообщество:


скриншот   скриншот   скриншот  

Код:

Format                                   : Matroska
Format version                           : Version 2
File size                                : 7.76 GiB
Duration                                 : 1h 55mn
Overall bit rate                         : 9 613 Kbps
Movie name                               : Еще одна из рода Болейн.(2008).BDRip.1080p.[envy]
Encoded date                             : UTC 2014-10-11 05:03:02
Writing application                      : mkvmerge v5.8.0 ('No Sleep / Pillow') built on Sep  2 2012 15:37:04
Writing library                          : libebml v1.2.3 + libmatroska v1.3.0

Video
ID                                       : 1
Format                                   : AVC
Format/Info                              : Advanced Video Codec
Format profile                           : High@L4.1
Format settings, CABAC                   : Yes
Format settings, ReFrames                : 4 frames
Codec ID                                 : V_MPEG4/ISO/AVC
Duration                                 : 1h 55mn
Bit rate                                 : 8 525 Kbps
Width                                    : 1 920 pixels
Height                                   : 1 040 pixels
Display aspect ratio                     : 1.85:1
Frame rate mode                          : Constant
Frame rate                               : 23.976 fps
Color space                              : YUV
Chroma subsampling                       : 4:2:0
Bit depth                                : 8 bits
Scan type                                : Progressive
Bits/(Pixel*Frame)                       : 0.178
Stream size                              : 6.73 GiB (87%)
Title                                    : Еще одна из рода Болейн.(2008).BDRip.1080p.[envy]
Writing library                          : x264 core 142 r2479 dd79a61
Encoding settings                        : cabac=1 / ref=4 / deblock=1:-3:-3 / analyse=0x3:0x113 / me=umh / subme=11 / psy=1 / psy_rd=1.00:0.00 / mixed_ref=1 / me_range=32 / chroma_me=1 / trellis=2 / 8x8dct=1 / cqm=0 / deadzone=21,11 / fast_pskip=0 / chroma_qp_offset=-2 / threads=12 / lookahead_threads=1 / sliced_threads=0 / nr=0 / decimate=1 / interlaced=0 / bluray_compat=0 / constrained_intra=0 / bframes=5 / b_pyramid=2 / b_adapt=2 / b_bias=0 / direct=3 / weightb=1 / open_gop=0 / weightp=2 / keyint=240 / keyint_min=23 / scenecut=40 / intra_refresh=0 / rc=2pass / mbtree=0 / bitrate=8525 / ratetol=2.0 / qcomp=0.60 / qpmin=0 / qpmax=69 / qpstep=4 / cplxblur=20.0 / qblur=0.5 / ip_ratio=1.40 / pb_ratio=1.30 / aq=2:0.90
Language                                 : English
Default                                  : Yes
Forced                                   : No

Audio #1
ID                                       : 2
Format                                   : AC-3
Format/Info                              : Audio Coding 3
Mode extension                           : CM (complete main)
Format settings, Endianness              : Big
Codec ID                                 : A_AC3
Duration                                 : 1h 55mn
Bit rate mode                            : Constant
Bit rate                                 : 448 Kbps
Channel(s)                               : 6 channels
Channel positions                        : Front: L C R, Side: L R, LFE
Sampling rate                            : 48.0 KHz
Bit depth                                : 16 bits
Compression mode                         : Lossy
Stream size                              : 370 MiB (5%)
Title                                    : Dub
Language                                 : Russian
Default                                  : Yes
Forced                                   : No

Audio #2
ID                                       : 3
Format                                   : AC-3
Format/Info                              : Audio Coding 3
Mode extension                           : CM (complete main)
Format settings, Endianness              : Big
Codec ID                                 : A_AC3
Duration                                 : 1h 55mn
Bit rate mode                            : Constant
Bit rate                                 : 640 Kbps
Channel(s)                               : 6 channels
Channel positions                        : Front: L C R, Side: L R, LFE
Sampling rate                            : 48.0 KHz
Bit depth                                : 16 bits
Compression mode                         : Lossy
Stream size                              : 529 MiB (7%)
Title                                    : Eng
Language                                 : English
Default                                  : No
Forced                                   : No

Text #1
ID                                       : 4
Format                                   : UTF-8
Codec ID                                 : S_TEXT/UTF8
Codec ID/Info                            : UTF-8 Plain Text
Title                                    : full
Language                                 : Russian
Default                                  : No
Forced                                   : No

Text #2
ID                                       : 5
Format                                   : UTF-8
Codec ID                                 : S_TEXT/UTF8
Codec ID/Info                            : UTF-8 Plain Text
Title                                    : full
Language                                 : English
Default                                  : No
Forced                                   : No

Menu
00:00:00.000                             : :0:00:00.000
00:07:57.310                             : :0:07:57.310
00:16:15.474                             : :0:16:15.474
00:20:09.833                             : :0:20:09.833
00:28:41.511                             : :0:28:41.511
00:35:44.058                             : :0:35:44.058
00:42:45.396                             : :0:42:45.396
00:50:41.705                             : :0:50:41.705
00:57:35.702                             : :0:57:35.702
01:05:38.976                             : :1:05:38.976
01:13:05.172                             : :1:13:05.172
01:19:25.135                             : :1:19:25.135
01:26:15.003                             : :1:26:15.003
01:35:20.840                             : :1:35:20.840
01:41:12.775                             : :1:41:12.775
01:50:15.692                             : :1:50:15.692



pb.wtf



Скачать Еще одна из рода Болейн через торрент http://5.firepic.org/5/images/2014-10/11/jn2mw4pgtcgk.png Скачать фильм Еще одна из рода Болейн через торрент бесплантно в хорошем качестве В ролях: Натали Портман, Скарлетт Йоханссон, Эрик Бана, Джим Старгесс, Марк Райлэнс, Кристин Скотт Томас, Дэвид Морисси, Бенедикт ... 6.5 10 4
Торрент: Зарегистрирован [2014-10-11 07:06] · скачан: 141 раз
Статус: √ проверено
Размер: 7.76 GB
Как cкачать? Как скачать Еще одна из рода Болейн через торрент | qTorrent

28-11-2019 20:33  

Отключить всю рекламу на сайте

    Дорогой пользователь! Огромная просьба, поблагодарите релизера, оцените раздачу и оставьте свои комментарий, если Вы скачали Еще одна из рода Болейн через торрент бесплатно! Внесите свою лепту в развитие PiratBit!
    Комментировать посты могут только пользователи прошедшие не сложную регистрацию
    Показать сообщения:    

    Еще одна из рода Болейн через торрент
    Скачать бесплатно Еще одна из рода Болейн
    Еще одна из рода Болейн скачать торрент
    Еще одна из рода Болейн смотреть онлайн
    Cкачать фильм Еще одна из рода Болейн бесплатно
    Еще одна из рода Болейн скачать торрент в хорошем качестве
    Еще одна из рода Болейн смотреть онлайн бесплатно в хорошем качестве


    Вы не можете начинать темы
    Вы не можете отвечать на сообщения
    Вы не можете редактировать свои сообщения
    Вы не можете удалять свои сообщения
    Вы не можете голосовать в опросах
    Вы не можете прикреплять файлы к сообщениям
    Вы можете скачивать файлы