Ссылка на приватное зеркало нашего сайта всего за 1$. Внимание количество ограничено!!!

2 сезон

iTunes

1 сезон

1

2 сезон

2 сезон

iTunes

1 сезон

RePack

30

Ultimate

ВАЖНО

ИГРА 18+

pack

RePack

MK11
pack

Забери бонус

RePack

jed

!!Акция!!

Alien_Rage

RePack

fifa19

RePack

Assassins Creed: Odyssey

RePack

NEED FOR SPEED™ PAYBACK

4 сезон

9 сезон

Бесстыжие 9 сезон

Все сериалы

все сериалы на PB.wtf

RePack

FAR CRY 5
  

По долгу службы / Сезон: 2 / Серии 1 - 6 из 6 / Line of Duty (Дуглас Маккиннон, Дэвид Кэффри, Дэниэл Неттхейм) [2014 г., триллер, драма, криминал, WEB-DLRip, Профессиональный многоголосый] Sony Turbo pb.wtf

По долгу службы через торрент pb.wtf

Размер: 4.62 GB | Добавлен: 6 лет 1 мес. назад | Торрент скачан:34 раза
Скачать  

11-10-2014 07:27 По долгу службы Скачать торрент  

По долгу службы / Line of Duty
Год выпуска: 2014
Страна: Великобритания
Жанр: Триллер, драма, криминал
Продолжительность: 6 х ~ 00:59:00
Перевод: Профессиональный многоголосый |Sony Turbo|

Режиссер: Дуглас Маккиннон, Дэвид Кэффри, Дэниэл Неттхейм
Продюссер: Саймон Хит, Джед Миркурио, Кристин Хили
Сценарий: Джед Миркурио
Премьера в мире: 26 июня 2012

IMDB 8.20 (1798)


В ролях: Ленни Джеймс, Вики МакКлюр, Мартин Компстон, Эдриан Данбар, Крэйг Паркинсон, Нил Мориссей, Кили Хоуз, Марк Боннар, Фиона Бойлэн, Кейт Эшфилд

Описание: Стива Арнотта переводят в отдел по борьбе с коррупцией после плачевной перестрелки в ходе антитеррористической операции, которая закончилась гибелью человека и произошла по вине другого копа.

Сэмпл

Качество: WEB-DLRip
Формат: AVI
Видео кодек: XviD
Аудио кодек: MP3
Видео: XviD, ~ 1 600 Kbps, 720x400, 25,000 кадров/сек
Аудио#1: Русский: MP3, 2 ch, 128 Kbps, 48,0 КГц |Sony Turbo|
Аудио#2: Английский: АС3, 2 ch, 192 Кбит/с, 48,0 КГц
Внимание! Раздача ведётся путём добавления новых серий; при каждом добавлении создётся новый торрент. Чтобы начать докачку новой серии, пользователям необходимо сделать следующее:
  • Остановить скачивание,
  • Удалить старый торрент у себя из клиента (старые серии удалять не надо),
  • Скачать новый торрент и запустить его у себя в клиенте вместо старого, при этом указать клиенту путь в старую папку куда и должно происходить скачивание новых серий.

    Ваш клиент при этом должен произвести хеширование (проверку) старой папки (если не производит сам - помогите ему сделать это), и будет докачивать только те серии которых у вас ещё нет. Старые серии при этом не удаляются, а продолжают раздаваться!

    Eсли вы уже удалили старые серии, то предотвратить повторную закачку старых серий можно, отжав галочку в соответсвующих местах при запуске нового торрента. По возможности, желательно не удалять старые серии как можно дольше чтобы релизёр не столько продолжал раздавать старые серии, а смог сконцентрироваться на новых.

  • General
    Complete name : /home/sb1855/files/Line.of.duty.S02.WEB-DLRip.Rus.Eng.MediaClub/Line.Of.Duty.S02E01.WEB-DLRip.Rus.Eng.MediaClub.avi
    Format : AVI
    Format/Info : Audio Video Interleave
    File size : 789 MiB
    Duration : 59mn 0s
    Overall bit rate : 1 870 Kbps
    Movie name : Line Of Duty s02e01 - Episode 1 @ MediaClub.TV
    Writing application : VirtualDubMod 1.5.10.2 (build 2540/release)
    Writing library : VirtualDubMod build 2540/release

    Video
    ID : 0
    Format : MPEG-4 Visual
    Format profile : Advanced Simple@L5
    Format settings, BVOP : 1
    Format settings, QPel : No
    Format settings, GMC : No warppoints
    Format settings, Matrix : Default (MPEG)
    Codec ID : XVID
    Codec ID/Hint : XviD
    Duration : 59mn 0s
    Bit rate : 1 600 Kbps
    Width : 720 pixels
    Height : 400 pixels
    Display aspect ratio : 16:9
    Frame rate : 25.000 fps
    Color space : YUV
    Chroma subsampling : 4:2:0
    Bit depth : 8 bits
    Scan type : Progressive
    Compression mode : Lossy
    Bits/(Pixel*Frame) : 0.222
    Stream size : 675 MiB (86%)
    Writing library : XviD 1.2.1 (UTC 2008-12-04)

    Audio #1
    ID : 1
    Format : MPEG Audio
    Format version : Version 1
    Format profile : Layer 3
    Codec ID : 55
    Codec ID/Hint : MP3
    Duration : 59mn 0s
    Bit rate mode : Constant
    Bit rate : 128 Kbps
    Channel(s) : 2 channels
    Sampling rate : 48.0 KHz
    Compression mode : Lossy
    Stream size : 54.0 MiB (7%)
    Alignment : Aligned on interleaves
    Interleave, duration : 40 ms (1.00 video frame)
    Interleave, preload duration : 504 ms

    Audio #2
    ID : 2
    Format : MPEG Audio
    Format version : Version 1
    Format profile : Layer 3
    Codec ID : 55
    Codec ID/Hint : MP3
    Duration : 59mn 0s
    Bit rate mode : Constant
    Bit rate : 128 Kbps
    Channel(s) : 2 channels
    Sampling rate : 48.0 KHz
    Compression mode : Lossy
    Stream size : 54.0 MiB (7%)
    Alignment : Aligned on interleaves
    Interleave, duration : 40 ms (1.00 video frame)
    Interleave, preload duration : 504 ms
    Writing library : LAME3.99r
    Encoding settings : -m s -V 4 -q 2 -lowpass 17 -b 128

    pb.wtf



    Скачать По долгу службы через торрент http://i68.fastpic.ru/big/2014/1011/f0/12c313ce3b8e073d158e782a90f9bcf0.png Скачать фильм По долгу службы через торрент бесплантно в хорошем качестве Описание: Стива Арнотта переводят в отдел по борьбе с коррупцией после плачевной перестрелки в ходе антитеррористической операции, которая ... 10 10 5
    Торрент: Зарегистрирован [2014-10-15 15:54] · скачан: 34 раз
    Статус: √ проверено
    Размер: 4.62 GB
    Как cкачать? Как скачать По долгу службы через торрент | qTorrent



    Последний раз редактировалось: кэп (2014-10-15 15:57), всего редактировалось 1 раз

    28-11-2019 20:33  

    Отключить всю рекламу на сайте

    15-10-2014 15:56 По долгу службы Скачать торрент  

    Торрент-файл заменен.
    Была заменена - 1 серия
    pb.wtf



      Дорогой пользователь! Огромная просьба, поблагодарите релизера, оцените раздачу и оставьте свои комментарий, если Вы скачали По долгу службы через торрент бесплатно! Внесите свою лепту в развитие PiratBit!
      Комментировать посты могут только пользователи прошедшие не сложную регистрацию
      Показать сообщения:    

      По долгу службы через торрент
      Скачать бесплатно По долгу службы
      По долгу службы скачать торрент
      По долгу службы смотреть онлайн
      Cкачать фильм По долгу службы бесплатно
      По долгу службы скачать торрент в хорошем качестве
      По долгу службы смотреть онлайн бесплатно в хорошем качестве


      Вы не можете начинать темы
      Вы не можете отвечать на сообщения
      Вы не можете редактировать свои сообщения
      Вы не можете удалять свои сообщения
      Вы не можете голосовать в опросах
      Вы не можете прикреплять файлы к сообщениям
      Вы можете скачивать файлы