Мега распродажа FORZA HORIZON 4 ULTIMATE+ВСЕ DLC+ОНЛАЙН всего за 499р. 349 руб. (супер цена). Внимание количество ограничено!!!

Лицензия

30

iTunes

мы

iTunes

1

1 сезон

Чернобыль

1 сезон

Ральф против интернета

MVO

Покемон. Детектив Пикачу

8 сезон

Игра престолов

iTunes

1+1

ИГРА 18+

pack

ВАЖНО

!!Акция!!

Alien_RageХит недели

RePack

Resident Evil 21
pack

RePack

Metro:Exodus

!!Акция!!

Alien_Rage

RePack

fifa19

RePack

Assassins Creed: Odyssey

RePack

NEED FOR SPEED™ PAYBACK

3 сезон

9 сезон

Бесстыжие 9 сезон

Все сериалы

все сериалы на PB.wtf

RePack

FAR CRY 5
Ребята, катастрофически не хватает 2730р. для оплаты серверов за МАЙ (всвязи с блокировками трафик упал в 3 раза), 1-2р., выручайте.
  

Безумный спецназ / The Men Who Stare at Goats (Грант Хеслов / Grant Heslov) [2009, Комедия, приключения, BDRip-AVC] DUB Лицензия pb.wtf

Безумный спецназ через торрент pb.wtf

Размер: 2.18 GB | Добавлен: 4 года 8 мес. назад | Торрент скачан:266 раз
Скачать  

11-10-2014 08:57 Безумный спецназ Скачать торрент  

Безумный спецназ / The Men Who Stare at Goats
Год выпуска: 2009
Страна: США, Великобритания / Overture Films, Winchester Capital Partners, BBC Films
Жанр: Комедия, приключения
Продолжительность: 01:33:45
Перевод: Дубляж [Blu-ray CP-Digital]
Субтитры: Русские, английские (Full + SDH)

Режиссер: Грант Хеслов / Grant Heslov

В ролях: Джордж Клуни, Юэн МакГрегор, Джефф Бриджес, Кевин Спейси, Стивен Лэнг, Роберт Патрик, Валид Цайтер, Стивен Рут, Гленн Моршауэр, Ник Офферман и др.

Описание: Экранизация одноименной книги британского журналиста Джона Ронсона, посвященной людям с паранормальными способностями, состоящим на службе в Армии США. Главный герой, офицер спецподразделения Лин Кэссиди, выполняет сверхсекретное задание, о котором ничего неизвестно даже армии США. Газетный репортер Боб Уилтон следует по пятам за Лином, пытаясь разузнать о его миссии…



Качество: BDRip-AVC
Формат: MKV
Видео кодек: H.264
Аудио кодек: AC3
Видео: 1120x476 (2,35:1), 23,976 fps, 2445 kbps, 0.191 bit/pixel
Аудио#1: 48 kHz, AC3 Dolby Digital, 3/2 (L,C,R,l,r) + LFE ch, 448.00 kbps | RUS
Аудио#2: 48 kHz, AC3 Dolby Digital, 3/2 (L,C,R,l,r) + LFE ch, 448.00 kbps | ENG

Релиз группы:
Автор рипа: potroks

Общее
Уникальный идентификатор : 250483775112756575117288058907431692181 (0xBC716B99420CD003AE41D5A211EE6795)
Полное имя : F:\Комедия\Bezumnyi.Spetcnaz.2009.DUAL.BDRip.x264.-HELLYWOOD.mkv
Формат : Matroska
Версия формата : Version 4 / Version 2
Размер файла : 2,18 Гбайт
Продолжительность : 1 ч. 33 м.
Общий поток : 3329 Кбит/сек
Название фильма : The Men Who Stare at Goats (2009) - HELLYWOOD
Дата кодирования : UTC 2014-10-11 07:49:00
Программа кодирования : mkvmerge v5.9.0 ('On The Loose') built on Dec 15 2012 16:39:58
Библиотека кодирования : libebml v1.3.0 + libmatroska v1.4.0

Видео
Идентификатор : 1
Формат : AVC
Формат/Информация : Advanced Video Codec
Профиль формата : High@L4.1
Параметр CABAC формата : Да
Параметр ReFrames формата : 10 кадров
Идентификатор кодека : V_MPEG4/ISO/AVC
Продолжительность : 1 ч. 33 м.
Битрейт : 2445 Кбит/сек
Ширина : 1120 пикселей
Высота : 476 пикселей
Соотношение сторон : 2,35:1
Режим частоты кадров : Постоянный
Частота кадров : 23,976 кадра/сек
Цветовое пространство : YUV
Субдискретизация насыщенности : 4:2:0
Битовая глубина : 8 бит
Тип развёртки : Прогрессивная
Бит/(Пиксели*Кадры) : 0.191
Размер потока : 1,55 Гбайт (71%)
Заголовок : potroks
Библиотека кодирования : x264 core 130 r2273 b3065e6
Настройки программы : cabac=1 / ref=10 / deblock=1:-2:-2 / analyse=0x3:0x133 / me=umh / subme=11 / psy=1 / psy_rd=1.00:0.05 / mixed_ref=1 / me_range=48 / chroma_me=1 / trellis=2 / 8x8dct=1 / cqm=0 / deadzone=21,11 / fast_pskip=0 / chroma_qp_offset=-3 / threads=9 / lookahead_threads=6 / sliced_threads=0 / nr=0 / decimate=0 / interlaced=0 / bluray_compat=0 / constrained_intra=0 / bframes=11 / b_pyramid=2 / b_adapt=2 / b_bias=0 / direct=3 / weightb=1 / open_gop=0 / weightp=2 / keyint=250 / keyint_min=23 / scenecut=40 / intra_refresh=0 / rc_lookahead=60 / rc=2pass / mbtree=0 / bitrate=2445 / ratetol=1.0 / qcomp=0.70 / qpmin=0 / qpmax=69 / qpstep=4 / cplxblur=20.0 / qblur=0.5 / vbv_maxrate=50000 / vbv_bufsize=62500 / nal_hrd=none / ip_ratio=1.35 / pb_ratio=1.25 / aq=1:0.80
Язык : English
Default : Да
Forced : Нет

Аудио #1
Идентификатор : 2
Формат : AC-3
Формат/Информация : Audio Coding 3
Расширение режима : CM (complete main)
Параметр Endianness формата : Big
Идентификатор кодека : A_AC3
Продолжительность : 1 ч. 33 м.
Вид битрейта : Постоянный
Битрейт : 448 Кбит/сек
Каналы : 6 каналов
Расположение каналов : Front: L C R, Side: L R, LFE
Частота : 48,0 КГц
Битовая глубина : 16 бит
Метод сжатия : С потерями
Размер потока : 300 Мбайт (13%)
Заголовок : Dub | DD 5.1 @ 448 kbps - Blu-ray CP-Digital
Язык : Russian
Default : Нет
Forced : Нет

Аудио #2
Идентификатор : 3
Формат : AC-3
Формат/Информация : Audio Coding 3
Расширение режима : CM (complete main)
Параметр Endianness формата : Big
Идентификатор кодека : A_AC3
Продолжительность : 1 ч. 33 м.
Вид битрейта : Постоянный
Битрейт : 448 Кбит/сек
Каналы : 6 каналов
Расположение каналов : Front: L C R, Side: L R, LFE
Частота : 48,0 КГц
Битовая глубина : 16 бит
Метод сжатия : С потерями
Размер потока : 300 Мбайт (13%)
Заголовок : Original | DD 5.1 @ 448 kbps
Язык : English
Default : Нет
Forced : Нет

Текст #1
Идентификатор : 4
Формат : UTF-8
Идентификатор кодека : S_TEXT/UTF8
Идентификатор кодека/Информация : UTF-8 Plain Text
Язык : Russian
Default : Нет
Forced : Нет

Текст #2
Идентификатор : 5
Формат : UTF-8
Идентификатор кодека : S_TEXT/UTF8
Идентификатор кодека/Информация : UTF-8 Plain Text
Заголовок : Full
Язык : English
Default : Нет
Forced : Нет

Текст #3
Идентификатор : 6
Формат : UTF-8
Идентификатор кодека : S_TEXT/UTF8
Идентификатор кодека/Информация : UTF-8 Plain Text
Заголовок : SDH
Язык : English
Default : Нет
Forced : Нет

Меню
00:00:00.000 : en:(01)00:00:00:000
00:07:59.687 : en:(02)00:07:59:687
00:16:00.542 : en:(03)00:16:00:542
00:25:31.488 : en:(04)00:25:31:488
00:33:25.712 : en:(05)00:33:25:712
00:42:49.483 : en:(06)00:42:49:483
00:49:50.904 : en:(07)00:49:50:904
00:57:11.511 : en:(08)00:57:11:511
01:07:10.818 : en:(09)01:07:10:818
01:13:02.920 : en:(10)01:13:02:920
01:19:08.368 : en:(11)01:19:08:368
01:28:07.240 : en:(12)01:28:07:240
01:33:45.369 : en:(13)01:33:45:369

pb.wtf



Скачать Безумный спецназ через торрент http://pic.kartinco.top/images/7/1kzjq.jpg Скачать фильм Безумный спецназ через торрент бесплантно в хорошем качестве Описание: Экранизация одноименной книги британского журналиста Джона Ронсона, посвященной людям с паранормальными способностями, состоящим ... 10 10 7
Торрент: Зарегистрирован [2014-10-11 08:57] · скачан: 266 раз
Статус: √ проверено
Размер: 2.18 GB
Как cкачать? Как скачать Безумный спецназ через торрент | qTorrent

% Раздел Тема Автор DL S | L
Фильмы (Blu-ray, BD-Remux, HDDVD) [ 24.48 GB ] Безумный спецназ / The Men Who Stare at Goats [2009 BD Remux 1080p] AVO [М.Чадов] +DUB [] bober100 Скачать
1 | 0


>> Регистрируемся здесь <<






Отзывы и комментарии о схеме читаем и пишем здесь: ---> Отзывы и комментарии о схеме

Новые благодарочки в телеграм довольных пользователей:
скриншот   скриншот   скриншот   скриншот   скриншот
    Дорогой пользователь! Огромная просьба, поблагодарите релизера, оцените раздачу и оставьте свои комментарий, если Вы скачали Безумный спецназ через торрент бесплатно! Внесите свою лепту в развитие PiratBit!
    Комментировать посты могут только пользователи прошедшие не сложную регистрацию
    Показать сообщения:    

    Безумный спецназ через торрент
    Скачать бесплатно Безумный спецназ
    Безумный спецназ скачать торрент
    Безумный спецназ смотреть онлайн
    Cкачать фильм Безумный спецназ бесплатно
    Безумный спецназ скачать торрент в хорошем качестве
    Безумный спецназ смотреть онлайн бесплатно в хорошем качестве


    Вы не можете начинать темы
    Вы не можете отвечать на сообщения
    Вы не можете редактировать свои сообщения
    Вы не можете удалять свои сообщения
    Вы не можете голосовать в опросах
    Вы не можете прикреплять файлы к сообщениям
    Вы можете скачивать файлы