Доктор Стрэндж

Лицензия

Добыча

Дубляж

Уэнсдэй

1 сезон

Тор

Дубляж

В эфире

Дубляж

Там, где раки поют

MVO

Властелин колец

1 сезон

Deluxe

pack

Рекомендуем

30

Пиратка

ВАЖНО

ВАЖНО

Ghostwire

Пиратка

jed

RePack

nioh2

RePack

RDR2

RePack

NEED FOR SPEED™ PAYBACK

RePack

скачать торрент

Кинопоиск HD

Острые козырьки 6 сезон

6 сезон

FAR CRY 6

RePack

скачать торрент

Лицензия

скачать торрент

MVO

1

1 сезон

скачать торрент

1 сезон

скачать торрент

Лицензия

  

Пианино / The Piano (Джейн Кэмпион) [1993, драма, мелодрама, музыка, BDRip 1080p ] 2 x DVO, AVO

Пианино через торрент pb.wtf

Размер: 16.23 GB | Добавлен: 5 лет 11 мес. назад | Торрент скачан:8 раз
Смотреть онлайн | Скачать   

11-10-2014 13:52 Пианино Скачать торрент  

Название: Пианино
Оригинальное название: The Piano
Год выпуска: 1993
Страна: Франция, Австралия, Новая Зеландия
Жанр: драма, мелодрама, музыка
Продолжительность: 02:00:51
Перевод: профессиональный двухголосый, авторский

Режиссёр: Джейн Кэмпион

В ролях: Холли Хантер, Харви Кейтель, Сэм Нилл, Анна Пакуин, Керри Уолкер, Женевьева Лемон, Танджия Бэйкер, Йен Мун, Питер Деннетт, Те Уотануи Скипуиз, Пит Смит, Брюс Олпресс, Клифф Кёртис, Карла Рупуа, Махина Тунуи, Хори Ахипене, Гордон Хэтфилд, Мери Бойнтон, Кирстен Бэтли, Таня Берни, Энни Эдвардс, Харина Хааре, Кристина Харимэйт, Стив Канута, П.Дж. Караурия, Сонни Кирикири, Ален Макиха, Грег Мэйор, Нил Мика Гудселл, Гай Моана, Джозеф Отими, Глайнис Параха, Рики Пикеринг, Эру Потака-Дьюис, Лиэн Ранги Генри, Хьюхана Рева, Тамати Райс, Паора Шарплс, Джордж Смо

Описание: Середина 19-го века. Немая Ада вместе с маленькой дочерью и любимым пианино покидает родную Шотландию и переезжает на другой конец света, в Новую Зеландию, где её ждёт будущий муж Стюарт. Он отказывается доставить в дом пианино, и оно остаётся брошенным на берегу. Ада, не говорящая с шести лет, всё же показывает мужу всю глубину своего гнева. Для этой сильной женщины молчание далеко не знак согласия. Сосед Стюарта Бэйнс, похожий на дикаря, привозит пианино, заменяющее Аде голос, к себе домой. Она может получить его назад, только если будет приходить к Бэйнсу домой и давать ему уроки музыки - по числу клавиш. Эти уроки заведут их в пучину роковых страстей…



Качество: BDRip 1080p Сравнение с исходником
Формат: MKV
Видео: MPEG-4 AVC, 16.6 Mбит/с, 1920x1080, 23,976 кадра/с
Аудио 1: русский, AC3, 192 kbps, 2 ch, 48 kHz [профессиональный двухголосый, HTB+]
Аудио 2: русский, AC3, 192 kbps, 2 ch, 48 kHz [профессиональный двухголосый, OPT]
Аудио 3: русский, DTS, 1509 kbps, 2 ch, 48 kHz [авторский, Сергей Кузнецов]
Аудио 4: английский, DTS, 1509 kbps, 2 ch, 48 kHz [оригинал]
Субтитры 1: русские
Субтитры 2: английские (для слабослышащих)
Имеются неименованные главы/чаптеры.
Общее
Уникальный идентификатор : 203081441483141099728060930296923252913 (0x98C8101C31107FFC9DB9D45F016B68B1)
Полное имя : D:\Video\Пианино.1993.BDRip.1080p by msltel.mkv
Формат : Matroska
Версия формата : Version 4 / Version 2
Размер файла : 16,2 Гбайт
Продолжительность : 2 ч. 0 м.
Общий поток : 19,2 Мбит/сек
Название фильма : Rip by msltel
Дата кодирования : UTC 2016-12-22 03:02:40
Программа кодирования : mkvmerge v8.2.0 ('World of Adventure') 64bit
Библиотека кодирования : libebml v1.3.1 + libmatroska v1.4.2

Видео
Идентификатор : 1
Формат : AVC
Формат/Информация : Advanced Video Codec
Профиль формата : [email protected]
Параметр CABAC формата : Да
Параметр ReFrames формата : 4 кадра
Идентификатор кодека : V_MPEG4/ISO/AVC
Продолжительность : 2 ч. 0 м.
Битрейт : 16,6 Мбит/сек
Ширина : 1920 пикселей
Высота : 1080 пикселей
Соотношение сторон : 16:9
Режим частоты кадров : Постоянный
Частота кадров : 23,976 (24000/1001) кадра/сек
Цветовое пространство : YUV
Субдискретизация насыщенности : 4:2:0
Битовая глубина : 8 бит
Тип развёртки : Прогрессивная
Бит/(Пиксели*Кадры) : 0.333
Размер потока : 14,0 Гбайт (86%)
Библиотека кодирования : x264 core 146 r2538 121396c
Настройки программы : cabac=1 / ref=4 / deblock=1:-3:-3 / analyse=0x3:0x113 / me=umh / subme=9 / psy=1 / psy_rd=1.00:0.15 / mixed_ref=1 / me_range=32 / chroma_me=1 / trellis=1 / 8x8dct=1 / cqm=0 / deadzone=21,11 / fast_pskip=0 / chroma_qp_offset=-3 / threads=6 / lookahead_threads=1 / sliced_threads=0 / nr=0 / decimate=1 / interlaced=0 / bluray_compat=0 / constrained_intra=0 / bframes=11 / b_pyramid=2 / b_adapt=2 / b_bias=0 / direct=1 / weightb=0 / open_gop=0 / weightp=2 / keyint=230 / keyint_min=23 / scenecut=40 / intra_refresh=0 / rc_lookahead=40 / rc=crf / mbtree=0 / crf=19.6 / qcomp=0.60 / qpmin=0 / qpmax=69 / qpstep=4 / vbv_maxrate=50000 / vbv_bufsize=62500 / crf_max=0.0 / nal_hrd=none / filler=0 / ip_ratio=1.40 / pb_ratio=1.30 / aq=1:1.00
Язык : English
Default : Да
Forced : Нет

Аудио #1
Идентификатор : 2
Формат : AC-3
Формат/Информация : Audio Coding 3
Расширение режима : CM (complete main)
Параметр Endianness формата : Big
Идентификатор кодека : A_AC3
Продолжительность : 2 ч. 0 м.
Вид битрейта : Постоянный
Битрейт : 192 Кбит/сек
Каналы : 2 канала
Расположение каналов : Front: L R
Частота : 48,0 КГц
Частота кадров : 31,250 кадров/сек (1536 spf)
Метод сжатия : С потерями
Размер потока : 166 Мбайт (1%)
Заголовок : DVO (HTB+)
Язык : Russian
Default : Да
Forced : Нет

Аудио #2
Идентификатор : 3
Формат : AC-3
Формат/Информация : Audio Coding 3
Расширение режима : CM (complete main)
Параметр Endianness формата : Big
Идентификатор кодека : A_AC3
Продолжительность : 2 ч. 0 м.
Вид битрейта : Постоянный
Битрейт : 192 Кбит/сек
Каналы : 2 канала
Расположение каналов : Front: L R
Частота : 48,0 КГц
Частота кадров : 31,250 кадров/сек (1536 spf)
Метод сжатия : С потерями
Размер потока : 166 Мбайт (1%)
Заголовок : DVO (OPT)
Язык : Russian
Default : Нет
Forced : Нет

Аудио #3
Идентификатор : 4
Формат : DTS
Формат/Информация : Digital Theater Systems
Режим : 16
Параметр Endianness формата : Big
Идентификатор кодека : A_DTS
Продолжительность : 2 ч. 0 м.
Вид битрейта : Постоянный
Битрейт : 768 Кбит/сек
Каналы : 2 канала
Расположение каналов : Front: L R
Частота : 48,0 КГц
Частота кадров : 93,750 кадра/сек (512 spf)
Битовая глубина : 24 бит
Метод сжатия : С потерями
Размер потока : 664 Мбайт (4%)
Заголовок : AVO (Сергей Кузнецов)
Язык : Russian
Default : Нет
Forced : Нет

Аудио #4
Идентификатор : 5
Формат : DTS
Формат/Информация : Digital Theater Systems
Режим : 16
Параметр Endianness формата : Big
Идентификатор кодека : A_DTS
Продолжительность : 2 ч. 0 м.
Вид битрейта : Постоянный
Битрейт : 1509 Кбит/сек
Каналы : 2 канала
Расположение каналов : Front: L R
Частота : 48,0 КГц
Частота кадров : 93,750 кадра/сек (512 spf)
Битовая глубина : 24 бит
Метод сжатия : С потерями
Размер потока : 1,27 Гбайт (8%)
Заголовок : original
Язык : English
Default : Нет
Forced : Нет

Текст #1
Идентификатор : 6
Формат : UTF-8
Идентификатор кодека : S_TEXT/UTF8
Идентификатор кодека/Информация : UTF-8 Plain Text
Продолжительность : 1 ч. 56 м.
Битрейт : 41 бит/сек
Count of elements : 624
Размер потока : 35,4 Кбайт (0%)
Заголовок : русские
Язык : Russian
Default : Нет
Forced : Нет

Текст #2
Идентификатор : 7
Формат : UTF-8
Идентификатор кодека : S_TEXT/UTF8
Идентификатор кодека/Информация : UTF-8 Plain Text
Продолжительность : 1 ч. 54 м.
Битрейт : 35 бит/сек
Count of elements : 985
Размер потока : 30,1 Кбайт (0%)
Заголовок : английские (для слабослышащих)
Язык : English
Default : Нет
Forced : Нет

Меню
00:00:00.000 : :Chapter 01
00:10:37.886 : :Chapter 02
00:16:26.777 : :Chapter 03
00:24:25.088 : :Chapter 04
00:32:31.074 : :Chapter 05
00:36:40.406 : :Chapter 06
00:40:16.330 : :Chapter 07
00:47:26.844 : :Chapter 08
00:50:18.765 : :Chapter 09
00:55:00.005 : :Chapter 10
01:04:02.129 : :Chapter 11
01:08:51.836 : :Chapter 12
01:20:49.928 : :Chapter 13
01:30:04.189 : :Chapter 14
01:43:29.203 : :Chapter 15
01:54:01.918 : :Chapter 16
02:00:50.826 : :Chapter 17



Скачать Пианино через торрент http://s017.radikal.ru/i401/1612/d8/594f13fc9532.jpg Скачать, смотреть онлайн Пианино бесплантно в хорошем качестве Описание: Середина 19-го века. Немая Ада вместе с маленькой дочерью и любимым пианино покидает родную Шотландию и переезжает на другой ... 9 10 5
Info! Золотая раздача, скачанное не засчитывается.
Торрент: Зарегистрирован [2016-12-22 08:05] · скачан: 8 раз
Статус: √ проверено
Размер: 16.23 GB
Как cкачать? Как скачать Пианино через торрент | UTorrent

% Раздел Тема Автор DL S | L
Фильмы до 2000 г. [ 3.75 GB ] Пианино / The Piano | AVO | BDRip-AVC msltel Скачать
1 | 0
Фильмы [HD 720p, 1080p] (Хороший звук DUB, MVO) [ 5.8 GB ] Пианино / The Piano | AVO | 720p msltel Скачать
1 | 0



Последний раз редактировалось: msltel (2016-12-22 08:05), всего редактировалось 2 раз(а)

28-11-2019 20:33  


Отключить вcю реклaмy на сайте, в т.ч. и в плеере онлайн просмотра!

11-10-2014 16:54 Пианино Скачать торрент  

Прекрасный фильм с глубочайшим смыслом.



    Дорогой пользователь! Огромная просьба, поблагодарите релизера, оцените раздачу и оставьте свои комментарий, если Вы скачали Пианино через торрент бесплатно!!
    Комментировать посты могут только пользователи прошедшие не сложную регистрацию
    Показать сообщения:    


    Пианино через торрент
    Скачать бесплатно Пианино
    Пианино скачать торрент
    Пианино смотреть онлайн
    Cкачать фильм Пианино бесплатно
    Пианино скачать торрент в хорошем качестве
    Пианино смотреть онлайн бесплатно в хорошем качестве
    Вы не можете начинать темы
    Вы не можете отвечать на сообщения
    Вы не можете редактировать свои сообщения
    Вы не можете удалять свои сообщения
    Вы не можете голосовать в опросах
    Вы не можете прикреплять файлы к сообщениям
    Вы можете скачивать файлы
    Пианино / The Piano [1993, драма, мелодрама, музыка, BDRip 1080p ] 2 x DVO, AVO смотреть онлайн, скачать торрент picoco.icu