2 сезон

iTunes

1 сезон

1

iTunes

iTunes

iTunes

1 сезон

RePack

30

ИГРА 18+

pack

ВАЖНО

!!Акция!!

Alien_RageХит недели

RePack

MK11
pack

Забери бонус

RePack

jed

!!Акция!!

Alien_Rage

RePack

fifa19

RePack

Assassins Creed: Odyssey

RePack

NEED FOR SPEED™ PAYBACK

4 сезон

9 сезон

Бесстыжие 9 сезон

Все сериалы

все сериалы на PB.wtf

RePack

FAR CRY 5
  

Особо тяжкое преступление / Felony (Мэттью Савилл) [2013 г., триллер, WEB-DLRip, Любительский одноголосый "datynet"] pb.wtf

Особо тяжкое преступление через торрент pb.wtf

Размер: 1.44 GB | Добавлен: 6 лет назад | Торрент скачан:61 раз
Скачать  

11-10-2014 17:23 Особо тяжкое преступление Скачать торрент  

Особо тяжкое преступление / Felony
Год выпуска: 2013
Страна: Австралия, США / Benaroya Pictures, Blue-Tongue Films, Goalpost Pictures
Жанр: триллер
Продолжительность: 01:47:08
Перевод: Любительский одноголосый (datynet)

Режиссер: Мэттью Савилл

В ролях: Джай Кортни,Мелисса Джордж,Джоэл Эдгертон,Том Уилкинсон,Сара Робертс,Лиззи Шебеста,Rosie Lourde,Белинда Бромилов,Джордж Баша,Дин Кирвуд

Описание: Хорошо отпраздновав с коллегами полученную награду за поимку крупной банды, офицер полиции садится за руль и в итоге сбивает юного велосипедиста. Он бросается мальчишке на помощь, делает ему искусственное дыхание, а затем дает показания приехавшим на место происшествия полицейским. Однако в последнюю секунду он решает сказать им неправду, что в итоге кардинально меняет и его судьбу, и жизнь этих представителей закона.

Качество: WEB-DLRip
Формат: AVI
Видео кодек: XviD
Аудио кодек: AC3
Видео: MPEG4, XviD, 720x304 (2.35:1), 23.976 fps, 1 655 Kbps (0.315 bit/pixel)
Аудио: AC-3, 48.0 KHz, 2 ch, 256 Kbps, CBR

[URL=http://pic.kartinco.top/images/7/v СПАМ

Общее
Полное имя : G:\кино\Felony.2013.WEB-DLRip.avi
Формат : AVI
Формат/Информация : Audio Video Interleave
Размер файла : 1,44 Гбайт
Продолжительность : 1 ч. 47 м.
Общий поток : 1920 Кбит/сек
Программа кодирования : VirtualDubMod 1.5.10.3 | www.virtualdub-fr.org || (build 2550/release)
Библиотека кодирования : VirtualDubMod build 2550/release

Видео
Идентификатор : 0
Формат : MPEG-4 Visual
Профиль формата : Advanced Simple@L5
Параметр BVOP формата : 2
Параметр QPel формата : Нет
Параметр GMC формата : Без точки перехода
Параметр матрицы формата : Default (H.263)
Идентификатор кодека : XVID
Идентификатор кодека/Подсказка : XviD
Продолжительность : 1 ч. 47 м.
Битрейт : 1655 Кбит/сек
Ширина : 720 пикселей
Высота : 304 пикселя
Соотношение сторон : 2,35:1
Частота кадров : 23,976 кадра/сек
Цветовое пространство : YUV
Субдискретизация насыщенности : 4:2:0
Битовая глубина : 8 бит
Тип развёртки : Прогрессивная
Метод сжатия : С потерями
Бит/(Пиксели*Кадры) : 0.315
Размер потока : 1,24 Гбайт (86%)
Библиотека кодирования : XviD 1.2.1 (UTC 2008-12-04)

Аудио
Идентификатор : 1
Формат : AC-3
Формат/Информация : Audio Coding 3
Расширение режима : CM (complete main)
Параметр Endianness формата : Big
Идентификатор кодека : 2000
Продолжительность : 1 ч. 47 м.
Вид битрейта : Постоянный
Битрейт : 256 Кбит/сек
Каналы : 2 канала
Расположение каналов : Front: L R
Частота : 48,0 КГц
Битовая глубина : 16 бит
Метод сжатия : С потерями
Размер потока : 196 Мбайт (13%)
Выравнивание : Разделение по промежуткам
Продолжительность промежутка : 42 мс. (1,00 видеокадр)
Время предзагрузки промежутка : 500 мс.

pb.wtf



Скачать Особо тяжкое преступление через торрент http://pic.kartinco.top/images/7/uc5cl.jpg Скачать фильм Особо тяжкое преступление через торрент бесплантно в хорошем качестве Описание: Хорошо отпраздновав с коллегами полученную награду за поимку крупной банды, офицер полиции садится за руль и в итоге сбивает ... 10 10 1
Торрент: Зарегистрирован [2014-10-11 17:23] · скачан: 61 раз
Статус: T временная
Размер: 1.44 GB
Как cкачать? Как скачать Особо тяжкое преступление через торрент | qTorrent

28-11-2019 20:33  

Отключить всю рекламу на сайте

    Дорогой пользователь! Огромная просьба, поблагодарите релизера, оцените раздачу и оставьте свои комментарий, если Вы скачали Особо тяжкое преступление через торрент бесплатно! Внесите свою лепту в развитие PiratBit!
    Комментировать посты могут только пользователи прошедшие не сложную регистрацию
    Показать сообщения:    

    Особо тяжкое преступление через торрент
    Скачать бесплатно Особо тяжкое преступление
    Особо тяжкое преступление скачать торрент
    Особо тяжкое преступление смотреть онлайн
    Cкачать фильм Особо тяжкое преступление бесплатно
    Особо тяжкое преступление скачать торрент в хорошем качестве
    Особо тяжкое преступление смотреть онлайн бесплатно в хорошем качестве


    Вы не можете начинать темы
    Вы не можете отвечать на сообщения
    Вы не можете редактировать свои сообщения
    Вы не можете удалять свои сообщения
    Вы не можете голосовать в опросах
    Вы не можете прикреплять файлы к сообщениям
    Вы можете скачивать файлы