Ссылка на приватное зеркало нашего сайта всего за 1$. Внимание количество ограничено!!!

2 сезон

iTunes

1 сезон

1

iTunes

iTunes

iTunes

1 сезон

RePack

30

ИГРА 18+

pack

ВАЖНО

!!Акция!!

Alien_RageХит недели

RePack

MK11
pack

Забери бонус

RePack

jed

!!Акция!!

Alien_Rage

RePack

fifa19

RePack

Assassins Creed: Odyssey

RePack

NEED FOR SPEED™ PAYBACK

4 сезон

9 сезон

Бесстыжие 9 сезон

Все сериалы

все сериалы на PB.wtf

RePack

FAR CRY 5
  

Макбет / The Tragedy of Macbeth (Роман Полански) [1971 г., драма, военный, история, BDRip 720p, Профессиональный многоголосый] pb.wtf

Макбет через торрент pb.wtf

Размер: 10.08 GB | Добавлен: 6 лет назад | Торрент скачан:10 раз
Скачать  

12-10-2014 05:11 Макбет Скачать торрент  

Макбет / The Tragedy of Macbeth

Год выпуска: 1971
Страна: Великобритания, США
Жанр: драма, военный, история
Продолжительность: 02:20:26
Перевод: Профессиональный многоголосый
Субтитры: Russian(2v), English

Режиссер: Роман Полански
Продюссер: Эндрю Браунсберг, Тимоти Баррилл, Хью М. Хефнер
Сценарий: Роман Полански, Кеннет Тайнен, Уильям Шекспир
Премьера в мире: 13 октября 1971

IMDB 7.40 (7658)


В ролях: Джон Финч, Франческа Аннис, Мартин Шоу, Теренс Бэйлер, Джон Страйд, Николас Селби, Стивен Чейз, Пол Шелли, Мэйси МакФаркар, Элси Тейлор

Описание: Роман Полански поставил противоречивую версию классической пьесы Шекспира о шотландском дворянине, которого погубило желание занять королевский трон. Это первый фильм режиссера после убийства его жены Шэрон Тэйт семьей Мэнсона.Насыщенный графическим насилием «Макбет» можно понять, как попытку изгнать демонов из собственной реальной жизни. В любом случае, возможно, это и не лучшая экранизация Шекспира, но определенно самое вдохновенное воссоздание холодного варварского духа тех времен.Грубость и кровавая жестокость на экране не самоцель или безответственность, а продуманная интерпретация, которая в меньшей степени поддается передаче обычными театральными приемами и техникой.

Доп. информация: Сохранены оригинальные чаптеры с Blu-ray.

Качество: BDRip 720p
Формат: MKV
Видео кодек: AVC
Аудио кодек: AC3
Видео: 1280x544 at 23.976 fps, x264@L4.1, ~7994 kbps avg
Аудио#1: Russian: 48 kHz, AC3, 2 (L,R) ch, ~384 kbps avg |Многоголосый закадровый, SomeWax|
Аудио#2: Russian: 48 kHz, AC3, 2 (L,R) ch, ~384 kbps avg |Многоголосый закадровый, DVD Магия|
Аудио#3: English: 48 kHz/24-bit, DTS 3/2 (L,C,R,l,r) + LFE ch, ~1509.00 kbps avg
General
Unique ID : 179990172742491798980044908320444171332 (0x8768D8A99BC3A1A487AB80F52418C444)
Complete name : /home/sb753/files/The.Tragedy.of.Macbeth.1971.720p.BluRay.2xRus.Eng.HDCLUB-SbR.mkv
Format : Matroska
Format version : Version 4 / Version 2
File size : 10.1 GiB
Duration : 2h 20mn
Overall bit rate : 10.3 Mbps
Encoded date : UTC 2014-10-11 16:53:39
Writing application : mkvmerge v6.9.0 ('On Duende') 32bit built on Apr 18 2014 12:49:35
Writing library : libebml v1.3.0 + libmatroska v1.4.1

Video
ID : 1
Format : AVC
Format/Info : Advanced Video Codec
Format profile : High@L4.1
Format settings, CABAC : Yes
Format settings, ReFrames : 12 frames
Codec ID : V_MPEG4/ISO/AVC
Duration : 2h 20mn
Bit rate : 7 792 Kbps
Width : 1 280 pixels
Height : 544 pixels
Display aspect ratio : 2.35:1
Frame rate : 23.976 fps
Color space : YUV
Chroma subsampling : 4:2:0
Bit depth : 8 bits
Scan type : Progressive
Bits/(Pixel*Frame) : 0.467
Stream size : 7.64 GiB (76%)
Writing library : x264 core 142 r2479kMod dd79a61
Encoding settings : cabac=1 / ref=12 / deblock=1:-3:-3 / analyse=0x3:0x133 / me=tesa / subme=10 / psy=1 / fade_compensate=0.00 / psy_rd=1.00:0.05 / mixed_ref=1 / me_range=24 / chroma_me=1 / trellis=2 / 8x8dct=1 / cqm=0 / deadzone=21,11 / fast_pskip=0 / chroma_qp_offset=-3 / threads=6 / lookahead_threads=1 / sliced_threads=0 / nr=0 / decimate=1 / interlaced=0 / bluray_compat=0 / constrained_intra=0 / fgo=0 / bframes=12 / b_pyramid=2 / b_adapt=2 / b_bias=0 / direct=3 / weightb=1 / open_gop=0 / weightp=2 / keyint=250 / keyint_min=23 / scenecut=40 / intra_refresh=0 / rc_lookahead=60 / rc=crf / mbtree=0 / crf=17.0000 / qcomp=0.70 / qpmin=0 / qpmax=69 / qpstep=4 / vbv_maxrate=62500 / vbv_bufsize=78125 / crf_max=0.0 / nal_hrd=none / filler=0 / ip_ratio=1.30 / pb_ratio=1.20 / aq=1:0.80
Language : English
Default : Yes
Forced : No
Matrix coefficients : BT.709-5, BT.1361, IEC 61966-2-4 709, SMPTE RP177

Audio #1
ID : 2
Format : AC-3
Format/Info : Audio Coding 3
Mode extension : CM (complete main)
Format settings, Endianness : Big
Codec ID : A_AC3
Duration : 2h 20mn
Bit rate mode : Constant
Bit rate : 384 Kbps
Channel(s) : 2 channels
Channel positions : Front: L R
Sampling rate : 48.0 KHz
Bit depth : 16 bits
Compression mode : Lossy
Stream size : 386 MiB (4%)
Title : ???????????? ?????????? SomeWax
Language : Russian
Default : Yes
Forced : No

Audio #2
ID : 3
Format : AC-3
Format/Info : Audio Coding 3
Mode extension : CM (complete main)
Format settings, Endianness : Big
Codec ID : A_AC3
Duration : 2h 20mn
Bit rate mode : Constant
Bit rate : 384 Kbps
Channel(s) : 2 channels
Channel positions : Front: L R
Sampling rate : 48.0 KHz
Bit depth : 16 bits
Compression mode : Lossy
Stream size : 386 MiB (4%)
Title : ???????????? ?????????? DVD ?????
Language : Russian
Default : No
Forced : No

Audio #3
ID : 4
Format : DTS
Format/Info : Digital Theater Systems
Codec ID : A_DTS
Duration : 2h 20mn
Bit rate mode : Constant
Bit rate : 1 510 Kbps
Channel(s) : 3 channels
Channel positions : Front: L C R
Sampling rate : 48.0 KHz
Bit depth : 24 bits
Compression mode : Lossy
Stream size : 1.48 GiB (15%)
Language : English
Default : No
Forced : No

Text #1
ID : 5
Format : UTF-8
Codec ID : S_TEXT/UTF8
Codec ID/Info : UTF-8 Plain Text
Title : SomeWax (??????? ??????????)
Language : Russian
Default : No
Forced : No

Text #2
ID : 6
Format : UTF-8
Codec ID : S_TEXT/UTF8
Codec ID/Info : UTF-8 Plain Text
Language : Russian
Default : No
Forced : No

Text #3
ID : 7
Format : UTF-8
Codec ID : S_TEXT/UTF8
Codec ID/Info : UTF-8 Plain Text
Language : English
Default : No
Forced : No

Text #4
ID : 8
Format : UTF-8
Codec ID : S_TEXT/UTF8
Codec ID/Info : UTF-8 Plain Text
Language : English
Default : No
Forced : No

Menu
00:00:00.000 : en:00:00:00.000
00:08:00.689 : en:00:08:00.689
00:17:23.918 : en:00:17:23.918
00:22:54.915 : en:00:22:54.915
00:36:15.465 : en:00:36:15.465
00:50:46.919 : en:00:50:46.919
00:59:16.928 : en:00:59:16.928
01:08:59.677 : en:01:08:59.677
01:16:06.979 : en:01:16:06.979
01:26:26.264 : en:01:26:26.264
01:33:44.661 : en:01:33:44.661
01:41:51.147 : en:01:41:51.147
01:49:05.789 : en:01:49:05.789
01:58:03.827 : en:01:58:03.827
02:06:52.355 : en:02:06:52.355
02:19:04.836 : en:02:19:04.836

pb.wtf



Скачать Макбет через торрент http://i66.fastpic.ru/big/2014/1012/6f/fc809e1704b1ab4e60b3439c500dda6f.png Скачать фильм Макбет через торрент бесплантно в хорошем качестве Описание: Роман Полански поставил противоречивую версию классической пьесы Шекспира о шотландском дворянине, которого погубило желание ... 10 10 7
Info! Золотая раздача, скачанное не засчитывается.
Торрент: Зарегистрирован [2014-10-12 05:11] · скачан: 10 раз
Статус: √ проверено
Размер: 10.08 GB
Как cкачать? Как скачать Макбет через торрент | qTorrent

28-11-2019 20:33  

Отключить всю рекламу на сайте

    Дорогой пользователь! Огромная просьба, поблагодарите релизера, оцените раздачу и оставьте свои комментарий, если Вы скачали Макбет через торрент бесплатно! Внесите свою лепту в развитие PiratBit!
    Комментировать посты могут только пользователи прошедшие не сложную регистрацию
    Показать сообщения:    

    Макбет через торрент
    Скачать бесплатно Макбет
    Макбет скачать торрент
    Макбет смотреть онлайн
    Cкачать фильм Макбет бесплатно
    Макбет скачать торрент в хорошем качестве
    Макбет смотреть онлайн бесплатно в хорошем качестве


    Вы не можете начинать темы
    Вы не можете отвечать на сообщения
    Вы не можете редактировать свои сообщения
    Вы не можете удалять свои сообщения
    Вы не можете голосовать в опросах
    Вы не можете прикреплять файлы к сообщениям
    Вы можете скачивать файлы