Ссылка на приватное зеркало нашего сайта всего за 1$. Внимание количество ограничено!!!

2 сезон

iTunes

1 сезон

1

iTunes

iTunes

iTunes

1 сезон

RePack

30

ИГРА 18+

pack

ВАЖНО

!!Акция!!

Alien_RageХит недели

RePack

MK11
pack

Забери бонус

RePack

jed

!!Акция!!

Alien_Rage

RePack

fifa19

RePack

Assassins Creed: Odyssey

RePack

NEED FOR SPEED™ PAYBACK

4 сезон

9 сезон

Бесстыжие 9 сезон

Все сериалы

все сериалы на PB.wtf

RePack

FAR CRY 5
  

Затерянные в космосе / Lost in Space (Стивен Хопкинс) [1998 г., фантастика, боевик, триллер, приключения, BDRip 720p,DUB, MVO, DVO, AVO] pb.wtf

Затерянные в космосе через торрент pb.wtf

Размер: 7.62 GB | Добавлен: 6 лет назад | Торрент скачан:488 раз
Скачать  

12-10-2014 08:40 Затерянные в космосе Скачать торрент  

Затерянные в космосе / Lost in Space
Год выпуска: 1998
Страна: США
Жанр: фантастика, боевик, триллер, приключения
Продолжительность: 02:10:14
Перевод: Дубляж, Профессиональный многоголосый, Профессиональный двухголосый, Авторский одноголосый (Ю. Живов)
Субтитры: Русские, английские

Режиссер: Стивен Хопкинс
Продюссер: Карла Фрай, Акива Голдсман, Стивен Хопкинс
Сценарий: Ирвин Аллен, Акива Голдсман
Бюджет: $80 000 000
Премьера в мире: 3 апреля 1998

IMDB 5.00 (52 556)


В ролях: Уильям Хёрт, Мими Роджерс, Хэзер Грэм, Лейси Чаберт, Джек Джонсон, Гари Олдман, Мэтт ЛеБлан, Джаред Харрис, Марк Годдар, Ленни Джеймс, Алексей Золотницкий, Светлана Старикова, Нина Лунева, Нина Тобилевич, Татьяна Весёлкина

Описание: Действие происходит в 2058 году, когда жить на Земле людям осталось не более двадцати лет — истощилось все. Выдающийся ученый Джон Робинсон и его семья отправляются на суперсовременном звездолете на далекую планету Альфа-прим, пригодную для обитания, чтобы построить там гиперворота, через которые будет осуществлена эвакуация человечества.Экстремисты подсылают на борт коварного доктора Смита, чтобы тот уничтожил семью Робинсонов и сам корабль. Случайно оставшись на корабле, чтобы не погибнуть, Смит будит Робинсонов и майора Уэста, лихого боевого пилота.Чтобы избежать столкновения с Солнцем, майор включает гипердвигатель, и звездолет оказывается затерянным в неизвестной доселе части Космоса.

Качество: BDRip 720p
Формат: MKV
Видео кодек: AVC
Аудио кодек: AC3 / DTS
Видео: MPEG-4 AVC, 3500 Кбит/с, 1280x534, 23.976 кадр/с
Аудио#1: Русский (AC3, 2 ch, 192 Кбит/с, 48.0 KHz) / Дублированный
Аудио#2: Русский (AC3, 6 ch, 448 Кбит/с, 48.0 KHz) / Профессиональный многоголосый (Киномания)
Аудио#3: Русский (AC3, 6 ch, 448 Кбит/с, 48.0 KHz) / Профессиональный многоголосый (R5)
Аудио#4: Русский (AC3, 2 ch, 192 Кбит/с, 48.0 KHz) / Профессиональный многоголосый (Россия-1)
Аудио #5: Русский (AC3, 2 ch, 192 Кбит/с, 48.0 KHz) / Профессиональный двухголосый (Garsu Pasaulis)
Аудио #6: Русский (DTS, 6 ch, 1510 Кбит/с, 48.0 KHz) / Авторский одноголосый (Ю. Живов)
Аудио #7: Украинский (AC3, 2 ch, 192 Кбит/с, 48.0 KHz) / Профессиональный двухголосый (1+1)
Аудио #8: Украинский (AC3, 2 ch, 192 Кбит/с, 48.0 KHz) / Профессиональный многоголосый (ICTV)
Аудио #9: Английский (DTS, 6 ch, 1510 Кбит/с, 48.0 KHz)
x264 [info]: frame I:1490 Avg QP:16.88 size: 82213
x264 [info]: frame P:45850 Avg QP:19.50 size: 32251
x264 [info]: frame B:140004 Avg QP:21.06 size: 12966

General
Unique ID : 217551952062686093752064363059951947648 (0xA3AAFB5D63679879AE033433E0F7CF80)
Complete name : /home/sb753/files/Lost.in.Space.1998.BDRip.720p.MediaClub.mkv
Format : Matroska
Format version : Version 4 / Version 2
File size : 7.62 GiB
Duration : 2h 10mn
Overall bit rate : 8 377 Kbps
Movie name : release MediaClub - MINION
Encoded date : UTC 2014-06-29 17:58:51
Writing application : mkvmerge v6.9.1 ('Blue Panther') 64bit built on Apr 18 2014 18:23:38
Writing library : libebml v1.3.0 + libmatroska v1.4.1

Video
ID : 1
Format : AVC
Format/Info : Advanced Video Codec
Format profile : High@L4.1
Format settings, CABAC : Yes
Format settings, ReFrames : 9 frames
Codec ID : V_MPEG4/ISO/AVC
Duration : 2h 10mn
Bit rate : 3 500 Kbps
Width : 1 280 pixels
Height : 534 pixels
Display aspect ratio : 2.40:1
Frame rate : 23.976 fps
Color space : YUV
Chroma subsampling : 4:2:0
Bit depth : 8 bits
Scan type : Progressive
Bits/(Pixel*Frame) : 0.214
Stream size : 3.03 GiB (40%)
Title : Lost in Space 1998 BDRip 720p [MediaClub - MINION]
Writing library : x264 core 138 r2358 9e941d1
Encoding settings : cabac=1 / ref=9 / deblock=1:-3:-3 / analyse=0x3:0x133 / me=umh / subme=11 / psy=1 / psy_rd=1.00:0.10 / mixed_ref=1 / me_range=48 / chroma_me=1 / trellis=2 / 8x8dct=1 / cqm=0 / deadzone=21,11 / fast_pskip=0 / chroma_qp_offset=-3 / threads=6 / lookahead_threads=1 / sliced_threads=0 / nr=0 / decimate=0 / interlaced=0 / bluray_compat=0 / constrained_intra=0 / bframes=10 / b_pyramid=2 / b_adapt=2 / b_bias=0 / direct=3 / weightb=1 / open_gop=0 / weightp=2 / keyint=240 / keyint_min=23 / scenecut=40 / intra_refresh=0 / rc=2pass / mbtree=0 / bitrate=3500 / ratetol=1.0 / qcomp=0.60 / qpmin=10 / qpmax=51 / qpstep=4 / cplxblur=20.0 / qblur=0.5 / ip_ratio=1.40 / pb_ratio=1.30 / aq=1:1.00
Language : English
Default : Yes
Forced : No

Audio #1
ID : 2
Format : AC-3
Format/Info : Audio Coding 3
Mode extension : CM (complete main)
Format settings, Endianness : Big
Codec ID : A_AC3
Duration : 2h 10mn
Bit rate mode : Constant
Bit rate : 192 Kbps
Channel(s) : 2 channels
Channel positions : Front: L R
Sampling rate : 48.0 KHz
Bit depth : 16 bits
Compression mode : Lossy
Stream size : 179 MiB (2%)
Title : DUB - ??????
Language : Russian
Default : Yes
Forced : No

Audio #2
ID : 3
Format : AC-3
Format/Info : Audio Coding 3
Mode extension : CM (complete main)
Format settings, Endianness : Big
Codec ID : A_AC3
Duration : 2h 10mn
Bit rate mode : Constant
Bit rate : 448 Kbps
Channel(s) : 6 channels
Channel positions : Front: L C R, Side: L R, LFE
Sampling rate : 48.0 KHz
Bit depth : 16 bits
Compression mode : Lossy
Stream size : 417 MiB (5%)
Title : MVO - ?????????
Language : Russian
Default : No
Forced : No

Audio #3
ID : 4
Format : AC-3
Format/Info : Audio Coding 3
Mode extension : CM (complete main)
Format settings, Endianness : Big
Codec ID : A_AC3
Duration : 2h 10mn
Bit rate mode : Constant
Bit rate : 448 Kbps
Channel(s) : 6 channels
Channel positions : Front: L C R, Side: L R, LFE
Sampling rate : 48.0 KHz
Bit depth : 16 bits
Compression mode : Lossy
Stream size : 417 MiB (5%)
Title : MVO - R5
Language : Russian
Default : No
Forced : No

Audio #4
ID : 5
Format : AC-3
Format/Info : Audio Coding 3
Mode extension : CM (complete main)
Format settings, Endianness : Big
Codec ID : A_AC3
Duration : 2h 10mn
Bit rate mode : Constant
Bit rate : 192 Kbps
Channel(s) : 2 channels
Channel positions : Front: L R
Sampling rate : 48.0 KHz
Bit depth : 16 bits
Compression mode : Lossy
Stream size : 179 MiB (2%)
Title : MVO - ?? ??????-1
Language : Russian
Default : No
Forced : No

Audio #5
ID : 6
Format : AC-3
Format/Info : Audio Coding 3
Mode extension : CM (complete main)
Format settings, Endianness : Big
Codec ID : A_AC3
Duration : 2h 10mn
Bit rate mode : Constant
Bit rate : 192 Kbps
Channel(s) : 2 channels
Channel positions : Front: L R
Sampling rate : 48.0 KHz
Bit depth : 16 bits
Compression mode : Lossy
Stream size : 179 MiB (2%)
Title : DVO - Garsu Pasaulis
Language : Russian
Default : No
Forced : No

Audio #6
ID : 7
Format : DTS
Format/Info : Digital Theater Systems
Codec ID : A_DTS
Duration : 2h 10mn
Bit rate mode : Constant
Bit rate : 1 510 Kbps
Channel(s) : 6 channels
Channel positions : Front: L C R, Side: L R, LFE
Sampling rate : 48.0 KHz
Bit depth : 24 bits
Compression mode : Lossy
Stream size : 1.37 GiB (18%)
Title : AVO - ???? ?????
Language : Russian
Default : No
Forced : No

Audio #7
ID : 8
Format : AC-3
Format/Info : Audio Coding 3
Mode extension : CM (complete main)
Format settings, Endianness : Big
Codec ID : A_AC3
Duration : 2h 10mn
Bit rate mode : Constant
Bit rate : 192 Kbps
Channel(s) : 2 channels
Channel positions : Front: L R
Sampling rate : 48.0 KHz
Bit depth : 16 bits
Compression mode : Lossy
Stream size : 179 MiB (2%)
Title : DVO - ?? 1+1
Language : Ukrainian
Default : No
Forced : No

Audio #8
ID : 9
Format : AC-3
Format/Info : Audio Coding 3
Mode extension : CM (complete main)
Format settings, Endianness : Big
Codec ID : A_AC3
Duration : 2h 10mn
Bit rate mode : Constant
Bit rate : 192 Kbps
Channel(s) : 2 channels
Channel positions : Front: L R
Sampling rate : 48.0 KHz
Bit depth : 16 bits
Compression mode : Lossy
Stream size : 179 MiB (2%)
Title : MVO - ?? ICTV
Language : Ukrainian
Default : No
Forced : No

Audio #9
ID : 10
Format : DTS
Format/Info : Digital Theater Systems
Codec ID : A_DTS
Duration : 2h 10mn
Bit rate mode : Constant
Bit rate : 1 510 Kbps
Channel(s) : 6 channels
Channel positions : Front: L C R, Side: L R, LFE
Sampling rate : 48.0 KHz
Bit depth : 24 bits
Compression mode : Lossy
Stream size : 1.37 GiB (18%)
Language : English
Default : No
Forced : No

Text #1
ID : 11
Format : UTF-8
Codec ID : S_TEXT/UTF8
Codec ID/Info : UTF-8 Plain Text
Title : R5 / ?????????
Language : Russian
Default : Yes
Forced : No

Text #2
ID : 12
Format : UTF-8
Codec ID : S_TEXT/UTF8
Codec ID/Info : UTF-8 Plain Text
Language : English
Default : No
Forced : No

Text #3
ID : 13
Format : UTF-8
Codec ID : S_TEXT/UTF8
Codec ID/Info : UTF-8 Plain Text
Title : SDH
Language : English
Default : No
Forced : No

Menu
00:00:00.000 : en:00:00:00.000
00:04:22.137 : en:00:04:22.137
00:07:19.564 : en:00:07:19.564
00:09:22.854 : en:00:09:22.854
00:12:01.804 : en:00:12:01.804
00:13:24.262 : en:00:13:24.262
00:17:58.995 : en:00:17:58.995
00:20:30.396 : en:00:20:30.396
00:25:34.283 : en:00:25:34.283
00:34:02.332 : en:00:34:02.332
00:36:20.178 : en:00:36:20.178
00:42:01.728 : en:00:42:01.728
00:47:20.671 : en:00:47:20.671
00:54:52.206 : en:00:54:52.206
01:07:23.873 : en:01:07:23.873
01:12:06.781 : en:01:12:06.781
01:19:19.546 : en:01:19:19.546
01:25:33.295 : en:01:25:33.295
01:31:20.058 : en:01:31:20.058
01:38:26.150 : en:01:38:26.150
01:44:45.237 : en:01:44:45.237
01:51:49.912 : en:01:51:49.912
01:57:08.480 : en:01:57:08.480
02:00:04.197 : en:02:00:04.197

pb.wtf



Скачать Затерянные в космосе через торрент http://i66.fastpic.ru/big/2014/1012/87/58459684f773f1aede7ac0154d629287.png Скачать фильм Затерянные в космосе через торрент бесплантно в хорошем качестве Описание: Действие происходит в 2058 году, когда жить на Земле людям осталось не более двадцати лет — истощилось все. Выдающийся ученый ... 10 10 17
Info! Золотая раздача, скачанное не засчитывается.
Торрент: Зарегистрирован [2014-10-12 08:40] · скачан: 488 раз
Статус: √ проверено
Размер: 7.62 GB
Как cкачать? Как скачать Затерянные в космосе через торрент | qTorrent

% Раздел Тема Автор DL S | L
Зарубежные сериалы [ 7.4 GB ] Затерянные в космосе / Lost in Space / Сезон: 2 / Серии: 1-10 из 10 [2019 WEB-DLRip] MVO [TVShows] bober100 Скачать
2 | 0
Зарубежные сериалы [ 57.49 GB ] Затерянные в космосе / Lost in Space / Сезон: 2 / Серии: 1-10 из 10 [2019 WEB-DL 1080p] MVO [TVShows] bober100 Скачать
1 | 0
Зарубежные сериалы [ 66.9 GB ] Затерянные в космосе / Lost in Space / Сезон: 2 / Серии: 1-10 из 10 [2019 UHD WEB-DLRip 2160p] DUB [Пифагор / Netflix] bober100 Скачать
1 | 0
Зарубежные сериалы [ 72.39 GB ] Затерянные в космосе / Lost in Space / Сезон: 1 / Серии: 1-10 из 10 [2018 UHD WEB-DLRip 2160p] DUB [Пифагор / Netflix] bober100 Скачать
1 | 1
Зарубежные сериалы [ 28.62 GB ] Затерянные в космосе / Lost in Space / Сезон: 2 / Серии: 1-10 из 10 [2019 WEBRip 720p] + [MVO] killermax2013 Скачать
1 | 0
Зарубежные сериалы [ 27.74 GB ] Затерянные в космосе / Lost in Space / Сезон: 2 / Серии: 1-10 из 10 [2019 WEB-DL 720p] MVO [LostFilm] bober100 Скачать
2 | 0
Зарубежные сериалы [ 6.33 GB ] Затерянные в космосе / Lost in Space / Сезон: 2 / Серии: 1-10 из 10 [2019 WEB-DLRip] MVO [LostFilm] bober100 Скачать
1 | 0

28-11-2019 20:33  

Отключить всю рекламу на сайте

12-10-2014 10:12 Затерянные в космосе Скачать торрент  

ну и как?pb.wtf



12-10-2014 11:08 Затерянные в космосе Скачать торрент  

Очень классный фильм, спасибо !!!pb.wtf



12-10-2014 12:03 Затерянные в космосе Скачать торрент  

фильм из детства!pb.wtf



12-10-2014 19:11 Затерянные в космосе Скачать торрент  

О, да, один из самых любимы фильмов детства, впрочем сейчас тоже.pb.wtf



    Дорогой пользователь! Огромная просьба, поблагодарите релизера, оцените раздачу и оставьте свои комментарий, если Вы скачали Затерянные в космосе через торрент бесплатно! Внесите свою лепту в развитие PiratBit!
    Комментировать посты могут только пользователи прошедшие не сложную регистрацию
    Показать сообщения:    

    Затерянные в космосе через торрент
    Скачать бесплатно Затерянные в космосе
    Затерянные в космосе скачать торрент
    Затерянные в космосе смотреть онлайн
    Cкачать фильм Затерянные в космосе бесплатно
    Затерянные в космосе скачать торрент в хорошем качестве
    Затерянные в космосе смотреть онлайн бесплатно в хорошем качестве


    Вы не можете начинать темы
    Вы не можете отвечать на сообщения
    Вы не можете редактировать свои сообщения
    Вы не можете удалять свои сообщения
    Вы не можете голосовать в опросах
    Вы не можете прикреплять файлы к сообщениям
    Вы можете скачивать файлы