2 сезон

iTunes

1 сезон

1

iTunes

iTunes

iTunes

1 сезон

RePack

30

ИГРА 18+

pack

ВАЖНО

!!Акция!!

Alien_RageХит недели

RePack

MK11
pack

Забери бонус

RePack

jed

!!Акция!!

Alien_Rage

RePack

fifa19

RePack

Assassins Creed: Odyssey

RePack

NEED FOR SPEED™ PAYBACK

4 сезон

9 сезон

Бесстыжие 9 сезон

Все сериалы

все сериалы на PB.wtf

RePack

FAR CRY 5
  

Светофор / Сезон: 7 / Серия 1-20 из 20 (Роман Фокин) [2014 г., Комедия, SATRip] pb.wtf

Светофор через торрент pb.wtf

Размер: 6.47 GB | Добавлен: 5 лет 11 мес. назад | Торрент скачан:377 раз
Скачать  

13-10-2014 11:34 Светофор Скачать торрент  

Светофор 7 сезон Год выпуска: 2014
Страна: Россия
Жанр: Комедия
Продолжительность: 25 минут серия

Режиссер: Роман Фокин

В ролях: Дмитрий Миллер, Джемал Тетруашвили, Алексей Макогон, Антонина Комиссарова, Ирина Низина, Ольга Медынич, Евгения Каверау

Описание: Сериал о трех друзьях возвращается на СТС 13 октября!"
Герои не изменили старым привычкам: энергичный Эдик (Дмитрий Миллер) больше всего в жизни ценит свободные отношения, тихоня Паша (Джемал Тетруашвили) одержим карьерой и женой Олесей, а флегматик Сева (Александр Макогон) дорожит семейным покоем и благополучием. Они по-прежнему очень разные – и все же они вместе, потому что нет ничего прочнее мужской дружбы.
В новых сериях судьба приготовила героям испытания четырьмя «Т»:
– Друзья решат устроить себе настоящие пацанские каникулы в солнечном Таиланде.
– Эдик впутается в любовный треугольник.
– Сева захочет срочно увеличить свой доход, ведь жена ждёт тройню!
– Паша доскандалится с Олесей до… тюрьмы.

Качество: SATRip
Формат: AVI
Видео кодек: XviD
Аудио кодек: MP3
Видео: MPEG4, XviD, 720x400 (16:9), 25.000 fps, 1 800 Kbps (0.250 bit/pixel)
Аудио: MP3, 48.0 KHz, 2 ch, 128 Kbps, CBR
скриншот   скриншот   скриншот   скриншот   скриншот   скриншот   скриншот   скриншот  

Код:

Общее
Полное имя                               : D:\Games\Светофор сезон 7 SATRip AVI\Svetofor.7-01.SATRip.[www.PB.wtf].avi
Формат                                   : AVI
Формат/Информация                        : Audio Video Interleave
Размер файла                             : 339 Мбайт
Продолжительность                        : 24 м.
Общий поток                              : 1937 Кбит/сек
Библиотека кодирования                   : VirtualDub build 32817/release

Видео
Идентификатор                            : 0
Формат                                   : MPEG-4 Visual
Профиль формата                          : Advanced Simple@L5
Параметр BVOP формата                    : 2
Параметр QPel формата                    : Нет
Параметр GMC формата                     : Без точки перехода
Параметр матрицы формата                 : Default (MPEG)
Идентификатор кодека                     : XVID
Идентификатор кодека/Подсказка           : XviD
Продолжительность                        : 24 м.
Битрейт                                  : 1800 Кбит/сек
Ширина                                   : 720 пикселей
Высота                                   : 400 пикселей
Соотношение сторон                       : 16:9
Частота кадров                           : 25,000 кадров/сек
Цветовое пространство                    : YUV
Субдискретизация насыщенности            : 4:2:0
Битовая глубина                          : 8 бит
Тип развёртки                            : Прогрессивная
Метод сжатия                             : С потерями
Бит/(Пиксели*Кадры)                      : 0.250
Размер потока                            : 315 Мбайт (93%)
Библиотека кодирования                   : XviD 1.2.1 (UTC 2008-12-04)

Аудио
Идентификатор                            : 1
Формат                                   : MPEG Audio
Версия формата                           : Version 1
Профиль формата                          : Layer 3
Режим                                    : Joint stereo
Расширение режима                        : MS Stereo
Идентификатор кодека                     : 55
Идентификатор кодека/Подсказка           : MP3
Продолжительность                        : 24 м.
Вид битрейта                             : Постоянный
Битрейт                                  : 128 Кбит/сек
Каналы                                   : 2 канала
Частота                                  : 48,0 КГц
Метод сжатия                             : С потерями
Размер потока                            : 22,4 Мбайт (7%)
Выравнивание                             : Разделение по промежуткам
Продолжительность промежутка             : 40  мс. (1,00 видеокадр)
Время предзагрузки промежутка            : 500  мс

.


Внимание! Раздача ведётся путём добавления новых серий; при каждом добавлении создётся новый торрент. Чтобы начать докачку новой серии, пользователям необходимо сделать следующее:
(1) остановить скачивание,
(2) удалить старый торрент у себя из клиента (старые серии удалять не надо),
(3) скачать новый торрент и запустить его у себя в клиенте вместо старого, при этом указать клиенту путь в старую папку куда и должно происходить скачивание новых серий.
Ваш клиент при этом должен произвести хеширование (проверку) старой папки (если не производит сам - помогите ему сделать это), и будет докачивать только те серии которых у вас ещё нет. Старые серии при этом не удаляются, а продолжают раздаваться!
Eсли вы уже удалили старые серии, то предотвратить повторную закачку старых серий можно, отжав галочку в соответсвующих местах при запуске нового торрента. По возможности, желательно не удалять старые серии как можно дольше чтобы релизёр не столько продолжал раздавать старые серии, а смог сконцентрироваться на новых.
Добавлена 13-16 серия pb.wtf



Скачать Светофор через торрент http://pic.kartinco.top/images/7/dsejo.jpg Скачать фильм Светофор через торрент бесплантно в хорошем качестве Описание: Сериал о трех друзьях возвращается на СТС 13 октября!"Герои не изменили старым привычкам: энергичный Эдик (Дмитрий Миллер) больше ... 9.7 10 41
Info! Золотая раздача, скачанное не засчитывается.
Торрент: Зарегистрирован [2014-11-14 12:47] · скачан: 377 раз
Статус: √ проверено
Размер: 6.47 GB
Как cкачать? Как скачать Светофор через торрент | qTorrent



Последний раз редактировалось: White Smoke (2014-11-11 16:48), всего редактировалось 9 раз(а)

28-11-2019 20:33  

Отключить всю рекламу на сайте

15-10-2014 18:43 Светофор Скачать торрент  

Хороший сериал,смотреть стоитpb.wtf



31-10-2014 12:36 Светофор Скачать торрент  

почему не качается????????????????????pb.wtf



02-11-2014 13:06 Светофор Скачать торрент  

cthutq21 писал(а):

почему не качается????????????????????

ну дайте же скачать!!!!!!pb.wtf



    Дорогой пользователь! Огромная просьба, поблагодарите релизера, оцените раздачу и оставьте свои комментарий, если Вы скачали Светофор через торрент бесплатно! Внесите свою лепту в развитие PiratBit!
    Комментировать посты могут только пользователи прошедшие не сложную регистрацию
    Показать сообщения:    

    Светофор через торрент
    Скачать бесплатно Светофор
    Светофор скачать торрент
    Светофор смотреть онлайн
    Cкачать фильм Светофор бесплатно
    Светофор скачать торрент в хорошем качестве
    Светофор смотреть онлайн бесплатно в хорошем качестве


    Вы не можете начинать темы
    Вы не можете отвечать на сообщения
    Вы не можете редактировать свои сообщения
    Вы не можете удалять свои сообщения
    Вы не можете голосовать в опросах
    Вы не можете прикреплять файлы к сообщениям
    Вы можете скачивать файлы