Ссылка на приватное зеркало нашего сайта всего за 1$. Внимание количество ограничено!!!

2 сезон

iTunes

1 сезон

1

2 сезон

2 сезон

iTunes

1 сезон

RePack

30

Ultimate

ВАЖНО

ИГРА 18+

pack

RePack

MK11
pack

Забери бонус

RePack

jed

!!Акция!!

Alien_Rage

RePack

fifa19

RePack

Assassins Creed: Odyssey

RePack

NEED FOR SPEED™ PAYBACK

4 сезон

9 сезон

Бесстыжие 9 сезон

Все сериалы

все сериалы на PB.wtf

RePack

FAR CRY 5
  

Просто Джексон (Леонид Пляскин) [2012, детектив, криминальный фильм, WEB-DLRip] pb.wtf

Просто Джексон через торрент pb.wtf

Размер: 1.45 GB | Добавлен: 6 лет 1 мес. назад | Торрент скачан:295 раз
Скачать  

14-10-2014 12:24 Просто Джексон Скачать торрент  

Просто ДжексонНазвание: Просто Джексон
Год выхода: 2012
Жанр: детектив, криминальный фильм
Режиссер: Леонид Пляскин

В ролях: Дмитрий Быковский-Ромашов, Андрей Горбачев, Екатерина Суворова, Дмитрий Орлов (III), Роман Бокашевский, Андрей Гульнев, Елизавета Прилепская, Сергей Великанов, Андрей Мокеев, Леонид Луценко, Илья Катунцев, Евгений Катаев

Описание:
Расследуя дело о пропаже сына бывшего начальника угрозыска Дегтярёва, Джексон задерживает возможного подозреваемого - владельца машины, в который силой увезли похищенного юношу. В салоне автомобиля предполагаемого похитителя Джексон находит сумку, доверху набитую деньгами в банковской упаковке, украденными во время последнего из серии ограблений и убийств инкассаторов. Задержанный Ивченко отказывается общаться с Хмелёвой, ведущей его дело, но Джексон знает, что этот бандит остаётся единственной ниточкой, связывающей оба дела - похищение Дегтярёва и разбойные нападения на банковские броневики. Версия Джексона подтверждается самым печальным образом: подельники Ивченко расправляются с девушкой майора Валентиной. Вооружившись до зубов купленным на чёрном рынке оружием, Джексон начинает свою собственную борьбу с похитителями, которую он сам называет "война миров".

Страна: Россия
Продолжительность: 01:32:00
Перевод: Не требуется


Файл
Кодек: AVI
Качество: WEB-DLRip
Видео: 720x400 (1.80:1), 25 fps, XviD build 50 ~2059 kbps avg, 0.29 bit/pixel
Звук: 48 kHz, AC3 Dolby Digital, 2/0 (L,R) ch, ~192 kbps
Prosto.Dzhekson.2012.WEB-DLRip.Deadmauvlad.1.45.GB.avi
Формат : AVI
Формат/Информация : Audio Video Interleave
Размер файла : 1,45 Гбайт
Продолжительность : 1 ч. 32 м.
Общий поток : 2261 Кбит/сек
Название фильма : Prosto.Dzhekson.2012.WEB-DLRip.Deadmauvlad.1.45.GB
Режиссёр : Deadmauvlad
Жанр : боевик, приключеня
Программа кодирования : VirtualDubMod 1.5.10.2 (build 2540/release)
Формат оригинала/Имя : Фильм
Правообладатель : Goldenshara

Видео
Идентификатор : 0
Формат : MPEG-4 Visual
Профиль формата : Advanced Simple@L5
Параметр BVOP формата : 1
Параметр QPel формата : Да
Параметр GMC формата : 3 точки перехода
Параметр матрицы формата : Выборочная
Идентификатор кодека : XVID
Идентификатор кодека/Подсказка : XviD
Продолжительность : 1 ч. 32 м.
Битрейт : 2060 Кбит/сек
Ширина : 720 пикселей
Высота : 400 пикселей
Соотношение сторон : 16:9
Частота кадров : 25,000 кадров/сек
Цветовое пространство : YUV
Субдискретизация насыщенности : 4:2:0
Битовая глубина : 8 бит
Тип развёртки : Чересстрочная
Порядок развёртки : Нижнее поле первое
Метод сжатия : С потерями
Бит/(Пиксели*Кадры) : 0.286
Размер потока : 1,32 Гбайт (91%)
Библиотека кодирования : XviD 1.2.1 (UTC 2008-12-04)

Аудио
Идентификатор : 1
Формат : AC-3
Формат/Информация : Audio Coding 3
Расширение режима : CM (complete main)
Параметр Endianness формата : Big
Идентификатор кодека : 2000
Продолжительность : 1 ч. 32 м.
Вид битрейта : Постоянный
Битрейт : 192 Кбит/сек
Каналы : 2 канала
Расположение каналов : Front: L R
Частота : 48,0 КГц
Битовая глубина : 16 бит
Метод сжатия : С потерями
Размер потока : 126 Мбайт (8%)
Выравнивание : Разделение по промежуткам
Продолжительность промежутка : 40 мс. (1,00 видеокадр)
Время предзагрузки промежутка : 500 мс. [/code]
Релиз Deadmauvlad
скриншот   скриншот   скриншот   скриншот   скриншот   скриншот   скриншот   скриншот   скриншот  
pb.wtf



Скачать Просто Джексон через торрент http://i26.fastpic.ru/big/2012/1201/3a/8a42587f2bfdb7f3fce8cca4cd32773a.jpg Скачать фильм Просто Джексон через торрент бесплантно в хорошем качестве Описание: Расследуя дело о пропаже сына бывшего начальника угрозыска Дегтярёва, Джексон задерживает возможного подозреваемого - владельца ... 10 10 6
Торрент: Зарегистрирован [2014-10-14 12:24] · скачан: 295 раз
Статус: √ проверено
Размер: 1.45 GB
Как cкачать? Как скачать Просто Джексон через торрент | qTorrent

% Раздел Тема Автор DL S | L
Наши новые фильмы 2012 [ 1.35 GB ] Просто Джексон [2012 ьный фильм SATRip] -=Cherry=- Скачать
1 | 0

28-11-2019 20:33  

Отключить всю рекламу на сайте

    Дорогой пользователь! Огромная просьба, поблагодарите релизера, оцените раздачу и оставьте свои комментарий, если Вы скачали Просто Джексон через торрент бесплатно! Внесите свою лепту в развитие PiratBit!
    Комментировать посты могут только пользователи прошедшие не сложную регистрацию
    Показать сообщения:    

    Просто Джексон через торрент
    Скачать бесплатно Просто Джексон
    Просто Джексон скачать торрент
    Просто Джексон смотреть онлайн
    Cкачать фильм Просто Джексон бесплатно
    Просто Джексон скачать торрент в хорошем качестве
    Просто Джексон смотреть онлайн бесплатно в хорошем качестве


    Вы не можете начинать темы
    Вы не можете отвечать на сообщения
    Вы не можете редактировать свои сообщения
    Вы не можете удалять свои сообщения
    Вы не можете голосовать в опросах
    Вы не можете прикреплять файлы к сообщениям
    Вы можете скачивать файлы