Ссылка на приватное зеркало нашего сайта всего за 1$. Внимание количество ограничено!!!

2 сезон

iTunes

1 сезон

1

iTunes

iTunes

iTunes

1 сезон

RePack

30

ИГРА 18+

pack

ВАЖНО

!!Акция!!

Alien_RageХит недели

RePack

MK11
pack

Забери бонус

RePack

jed

!!Акция!!

Alien_Rage

RePack

fifa19

RePack

Assassins Creed: Odyssey

RePack

NEED FOR SPEED™ PAYBACK

4 сезон

9 сезон

Бесстыжие 9 сезон

Все сериалы

все сериалы на PB.wtf

RePack

FAR CRY 5
  

Пятеро друзей 3 / Fünf Freunde 3 (Майк Марзук) [2014 г., семейный, HDRip, Любительский одноголосый "В. Данилов"] pb.wtf

Пятеро друзей 3 через торрент pb.wtf

Размер: 1.46 GB | Добавлен: 6 лет назад | Торрент скачан:34 раза
Скачать  

14-10-2014 17:20 Пятеро друзей 3 Скачать торрент  

Пятеро друзей 3 / Fünf Freunde 3
Год выпуска: 2014
Страна: Германия / Living Films, SamFilm Produktion
Жанр: семейный
Продолжительность: 01:35:17
Перевод: Любительский одноголосый (В.Данилов)

Режиссер: Майк Марзук

В ролях: Квирин Ёттль, Юстус Шлингензипен, Валерия Айзенбарт, Нееле-Мари Никель, Коффи, Скай Дюмон, Михаэль Фитц, Михаэль Кесслер, Нора фон Вальдштеттен, Давина Вебер

Описание: Четверо подростков и их пёс Тимми отправляются отдыхать на райский остров. Вскоре они обнаруживают здесь компас с затонувшего корабля. Их новый приятель – местный парень Джо – рассказывает детям, что с помощью этого компаса можно найти клад. Узнав, что бизнесмен Хейнс планирует построить в этих местах элитный курорт, и семья Джо вот-вот лишится своего дома, юные искатели сокровищ отправляются в полные опасностей джунгли на поиски золота. Но они не знают, что за кладом также охотятся бандиты Касси и Ник...

Качество: HDRip
Формат: AVI
Видео кодек: XviD
Аудио кодек: AC3
Видео: MPEG4, XviD, 720x384 (1.875), 24.000 fps, 1 795 Kbps (0.271 bit/pixel)
Аудио: AC-3, 48.0 KHz, 6 ch, 384 Kbps, CBR


Общее
Полное имя : G:\кино\Пятеро друзей 3.2014.HDRip.avi
Формат : AVI
Формат/Информация : Audio Video Interleave
Размер файла : 1,46 Гбайт
Продолжительность : 1 ч. 35 м.
Общий поток : 2188 Кбит/сек
Программа кодирования : VirtualDubMod 1.5.10.3 | www.virtualdub-fr.org || (build 2550/release)
Библиотека кодирования : VirtualDubMod build 2550/release

Видео
Идентификатор : 0
Формат : MPEG-4 Visual
Профиль формата : Advanced Simple@L5
Параметр BVOP формата : 2
Параметр QPel формата : Нет
Параметр GMC формата : Без точки перехода
Параметр матрицы формата : Default (H.263)
Идентификатор кодека : XVID
Идентификатор кодека/Подсказка : XviD
Продолжительность : 1 ч. 35 м.
Битрейт : 1795 Кбит/сек
Ширина : 720 пикселей
Высота : 384 пикселя
Соотношение сторон : 1,85:1
Частота кадров : 24,000 кадра/сек
Цветовое пространство : YUV
Субдискретизация насыщенности : 4:2:0
Битовая глубина : 8 бит
Тип развёртки : Прогрессивная
Метод сжатия : С потерями
Бит/(Пиксели*Кадры) : 0.271
Размер потока : 1,19 Гбайт (82%)
Библиотека кодирования : XviD 1.2.1 (UTC 2008-12-04)

Аудио
Идентификатор : 1
Формат : AC-3
Формат/Информация : Audio Coding 3
Расширение режима : CM (complete main)
Параметр Endianness формата : Big
Идентификатор кодека : 2000
Продолжительность : 1 ч. 35 м.
Вид битрейта : Постоянный
Битрейт : 384 Кбит/сек
Каналы : 6 каналов
Расположение каналов : Front: L C R, Side: L R, LFE
Частота : 48,0 КГц
Битовая глубина : 16 бит
Метод сжатия : С потерями
Размер потока : 262 Мбайт (18%)
Выравнивание : Разделение по промежуткам
Продолжительность промежутка : 42 мс. (1,00 видеокадр)
Время предзагрузки промежутка : 500 мс.

pb.wtf



Скачать Пятеро друзей 3 через торрент http://pic.kartinco.top/images/7/o2jxx.jpg Скачать фильм Пятеро друзей 3 через торрент бесплантно в хорошем качестве Описание: Четверо подростков и их пёс Тимми отправляются отдыхать на райский остров. Вскоре они обнаруживают здесь компас с затонувшего ... 10 10 3
Торрент: Зарегистрирован [2014-10-14 17:20] · скачан: 34 раз
Статус: T временная
Размер: 1.46 GB
Как cкачать? Как скачать Пятеро друзей 3 через торрент | qTorrent

% Раздел Тема Автор DL S | L
T Фильмы [HD 720p, 1080p] (Хороший звук DUB, MVO) [ 4 GB ] Пятеро друзей 3 / Fünf Freunde 3 [2014 Германия BDRip 720p-AVC Любительский многоголосый GEKADOL Скачать
1 | 0

28-11-2019 20:33  

Отключить всю рекламу на сайте

    Дорогой пользователь! Огромная просьба, поблагодарите релизера, оцените раздачу и оставьте свои комментарий, если Вы скачали Пятеро друзей 3 через торрент бесплатно! Внесите свою лепту в развитие PiratBit!
    Комментировать посты могут только пользователи прошедшие не сложную регистрацию
    Показать сообщения:    

    Пятеро друзей 3 через торрент
    Скачать бесплатно Пятеро друзей 3
    Пятеро друзей 3 скачать торрент
    Пятеро друзей 3 смотреть онлайн
    Cкачать фильм Пятеро друзей 3 бесплатно
    Пятеро друзей 3 скачать торрент в хорошем качестве
    Пятеро друзей 3 смотреть онлайн бесплатно в хорошем качестве


    Вы не можете начинать темы
    Вы не можете отвечать на сообщения
    Вы не можете редактировать свои сообщения
    Вы не можете удалять свои сообщения
    Вы не можете голосовать в опросах
    Вы не можете прикреплять файлы к сообщениям
    Вы можете скачивать файлы