2 сезон

iTunes

MVO

1

2 сезон

iTunes

iTunes

1 сезон

RePack

30

Ultimate

ВАЖНО

ИГРА 18+

pack

RePack

MK11
pack

Легкие деньги

RePack

jed

RePack

fifa19

RePack

RDR2

RePack

NEED FOR SPEED™ PAYBACK

4 сезон

9 сезон

Бесстыжие 9 сезон

Все сериалы

все сериалы на PB.wtf

RePack

FAR CRY 5

Anonymous, добрый вечер, мы не успеваем собрать деньги на оплату серверов за декабрь и январь, помогите нам пожалуйста в это трудное время. В качестве благодарности мы отключим Вам всю рекламу на сайте (укажите свой ник в строку Ваше имя)!

×
  
Magnet ссылка

Любовь в словах и картинках / Words and Pictures (Фред Скеписи / Fred Schepisi) [2013, США, драма, мелодрама, комедия, HDRip, Профессиональный многоголосый - НТВ+] pb.wtf

Любовь в словах и картинках через торрент pb.wtf

Размер: 2.06 GB | Добавлен: 6 лет 3 мес. назад | Торрент скачан:106 раз
Скачать  

15-10-2014 10:35 Любовь в словах и картинках Скачать торрент  

Любовь в словах и картинках / Words and Pictures«Is a man worth more than his words, a woman worth more than her pictures?»
Год выпуска: 2013
Страна: США
Жанр: драма, мелодрама, комедия
Продолжительность: 01:55:44
Перевод: Профессиональный многоголосый [НТВ+]
Субтитры: Отсутствует
Режиссер: Фред Скеписи / Fred Schepisi
В ролях:


Клайв Оуэн (Jack Marcus), Жюльет Бинош (Dina Delsanto), Валери Тиан (Emily), Навид Негабан (Rashid), Брюс Дэвисон (Walt), Эми Бреннеман (Elspeth), Адам ДиМарко (Swint), Джош Ссеттуба (Cole Patterson), Джанет Киддер (Sabine), Christian Scheider (Tony), Киган Коннор Трейси (Ellen), Эндрю МакИлрой (Roy Loden)

Описание:
Учитель английского языка и преподаватель искусства встречаются в престижной подготовительной школе. Между ними складываются непростые взаимоотношения. Более того они положили начало войне - студенты теперь пытаются доказать, что сильнее - слово или изображение. Но настоящая война идет против внутренних демонов преподавателей, пока их души борются за воссоединение...

Рейтинг:

MPAA: PG-13 - Детям до 13 лет просмотр не желателен
Качество: HDRip
Формат: AVI
Видео кодек:XviD
Аудио кодек:AC3
Видео: XviD, 720x304 (2.35:1), 1949 kbps, 23,976 fps, 0,371 bpp
Аудио №1: AC3 / 2.0 / 48 kHz / 192 kbps / 16 bit - Профессиональный многоголосый [НТВ+]
Аудио №2: AC3 / 5.1 / 48 kHz / 384 kbps / 16 bit - (оригинал)


General
Complete name : D:\Users\_KaisiK_\uTorrent\КИНО\Lubovj.v.slovah.i.kartinkah.2013.D.HDRip.2.05GB.avi
Format : AVI
Format/Info : Audio Video Interleave
Format profile : OpenDML
File size : 2.06 GiB
Duration : 1h 55mn
Overall bit rate : 2 543 Kbps
Writing application : VirtualDubMod 1.5.10.2 (build 2540/release)
Writing library : VirtualDubMod build 2540/release

Video
ID : 0
Format : MPEG-4 Visual
Format profile : Advanced Simple@L5
Format settings, BVOP : 2
Format settings, QPel : No
Format settings, GMC : No warppoints
Format settings, Matrix : Default (MPEG)
Codec ID : XVID
Codec ID/Hint : XviD
Duration : 1h 55mn
Bit rate : 1 949 Kbps
Width : 720 pixels
Height : 304 pixels
Display aspect ratio : 2.35:1
Frame rate : 23.976 fps
Color space : YUV
Chroma subsampling : 4:2:0
Bit depth : 8 bits
Scan type : Progressive
Compression mode : Lossy
Bits/(Pixel*Frame) : 0.371
Stream size : 1.58 GiB (77%)
Writing library : XviD 1.2.1 (UTC 2008-12-04)

Audio #1
ID : 1
Format : AC-3
Format/Info : Audio Coding 3
Mode extension : CM (complete main)
Codec ID : 2000
Duration : 1h 55mn
Bit rate mode : Constant
Bit rate : 192 Kbps
Channel(s) : 2 channels
Channel positions : Front: L R
Sampling rate : 48.0 KHz
Bit depth : 16 bits
Compression mode : Lossy
Stream size : 159 MiB (8%)
Alignment : Split accross interleaves
Interleave, duration : 42 ms (1.00 video frame)
Interleave, preload duration : 500 ms

Audio #2
ID : 2
Format : AC-3
Format/Info : Audio Coding 3
Mode extension : CM (complete main)
Codec ID : 2000
Duration : 1h 55mn
Bit rate mode : Constant
Bit rate : 384 Kbps
Channel(s) : 6 channels
Channel positions : Front: L C R, Side: L R, LFE
Sampling rate : 48.0 KHz
Bit depth : 16 bits
Compression mode : Lossy
Stream size : 318 MiB (15%)
Alignment : Split accross interleaves
Interleave, duration : 42 ms (1.00 video frame)
Interleave, preload duration : 500 ms

[/code]
pb.wtf



Скачать Любовь в словах и картинках через торрент http://i68.fastpic.ru/big/2014/1015/30/3f59cf43e4b93b23b00c4bb2e5759f30.jpg Скачать фильм Любовь в словах и картинках через торрент бесплантно в хорошем качестве Описание: Учитель английского языка и преподаватель искусства встречаются в престижной подготовительной школе. Между ними складываются ... 8.7 10 7
Торрент: Зарегистрирован [2014-10-15 10:35] · скачан: 106 раз
Статус: √ проверено
Размер: 2.06 GB
Как cкачать? Как скачать Любовь в словах и картинках через торрент | UTorrent

% Раздел Тема Автор DL S | L
Фильмы [HD 720p, 1080p] (Хороший звук DUB, MVO) [ 11.89 GB ] Любовь в словах и картинках / Words and Pictures [2013 BDRip 1080p ] Ворон Скачать
1 | 0
Фильмы 2013 [DVDrip, WEB-DLRip, HDrip] [ 1.37 GB ] Любовь в словах и картинках / Words and Pictures [2013 HDRip ] кэп Скачать
1 | 0

28-11-2019 20:33  

Отключить всю рекламу на сайте

    Дорогой пользователь! Огромная просьба, поблагодарите релизера, оцените раздачу и оставьте свои комментарий, если Вы скачали Любовь в словах и картинках через торрент бесплатно! Внесите свою лепту в развитие PiratBit!
    Комментировать посты могут только пользователи прошедшие не сложную регистрацию
    Показать сообщения:    

    Любовь в словах и картинках через торрент
    Скачать бесплатно Любовь в словах и картинках
    Любовь в словах и картинках скачать торрент
    Любовь в словах и картинках смотреть онлайн
    Cкачать фильм Любовь в словах и картинках бесплатно
    Любовь в словах и картинках скачать торрент в хорошем качестве
    Любовь в словах и картинках смотреть онлайн бесплатно в хорошем качестве


    Вы не можете начинать темы
    Вы не можете отвечать на сообщения
    Вы не можете редактировать свои сообщения
    Вы не можете удалять свои сообщения
    Вы не можете голосовать в опросах
    Вы не можете прикреплять файлы к сообщениям
    Вы можете скачивать файлы