Всегда рабочее зеркало без VPN и Proxy просто перед .vidak.icu напиши любое слово или цифру, Пример http://jdm1.vidak.icu

Лицензия

MVO

1 сезон

1

1 сезон

iTunes

1 сезон

13

1 сезон

Deluxe

pack

Рекомендуем

Repack

30

ВАЖНО

RePack

MK11

RePack

jed

RePack

fifa19

RePack

RDR2

RePack

NEED FOR SPEED™ PAYBACK

Кинопоиск HD

6 сезон

 Острые козырьки 6 сезон

Все сериалы

все сериалы на PB.wtf

RePack

FAR CRY 5
  
Magnet ссылка

Принц / The Prince (Брайан А Миллер / Brian A Miller) [2014, США, боевик, триллер, криминал, HDRip, Любительский (двухголосый)] pb.wtf

Принц через торрент pb.wtf

Размер: 1.46 GB | Добавлен: 7 лет 10 мес. назад | Торрент скачан:722 раза
Смотреть онлайн Принц | Скачать    Ребята, помогите собрать деньги на оплату серверов!!!

15-10-2014 11:30 Принц Скачать торрент  

Принц / The Prince

Год выпуска: 2014
Страна: США
Жанр: боевик, триллер, криминал, драма
Продолжительность: 01:30:40
Перевод: Любительский (двухголосый)[Сладкая парочка]
Субтитры: Отсутствует
Режиссер: Брайан А Миллер / Brian A Miller
В ролях:


Джейсон Патрик (Paul), Брюс Уиллис (Omar), Джон Кьюсак (Sam), Фифти Сент (The Pharmacy), Рэйн (Mark), Джессика Лаундес (Angela), Джина Мантенья (Beth), Дон Харви (Riley), Джесси Пруэтт (Wilson), Диди Костин (Rachel), Бонни Соммервиль (Susan), Тим Филдс (Jimmy)

Описание:
Согласно сюжету, бывший головорез из Лас-Вегаса возвращается домой и обнаруживает, что его дочь похищена.

Рейтинг:
Бюджет:$18 000 000
MPAA: R - Лицам до 17 лет обязательно присутствие взрослого
Качество: HDRip
Формат: AVI
Видео кодек:XviD
Аудио кодек:AC3
Видео: XviD, 720x304 (2.35:1), 1912 kbps, 23,976 fps, 0,364 bpp
Аудио: AC3 / 5.1 / 48 kHz / 384 kbps / 16 bit

General
Complete name : D:\Users\_KaisiK_\uTorrent\КИНО\Prints.2014.P.HDRip.1400MB.avi
Format : AVI
Format/Info : Audio Video Interleave
File size : 1.46 GiB
Duration : 1h 30mn
Overall bit rate : 2 306 Kbps
Writing application : VirtualDubMod 1.5.10.2 (build 2540/release)
Writing library : VirtualDubMod build 2540/release

Video
ID : 0
Format : MPEG-4 Visual
Format profile : Advanced [email protected]
Format settings, BVOP : 2
Format settings, QPel : No
Format settings, GMC : No warppoints
Format settings, Matrix : Default (MPEG)
Codec ID : XVID
Codec ID/Hint : XviD
Duration : 1h 30mn
Bit rate : 1 913 Kbps
Width : 720 pixels
Height : 304 pixels
Display aspect ratio : 2.35:1
Frame rate : 23.976 fps
Color space : YUV
Chroma subsampling : 4:2:0
Bit depth : 8 bits
Scan type : Progressive
Compression mode : Lossy
Bits/(Pixel*Frame) : 0.364
Stream size : 1.21 GiB (83%)
Writing library : XviD 1.2.1 (UTC 2008-12-04)

Audio
ID : 1
Format : AC-3
Format/Info : Audio Coding 3
Mode extension : CM (complete main)
Codec ID : 2000
Duration : 1h 30mn
Bit rate mode : Constant
Bit rate : 384 Kbps
Channel(s) : 6 channels
Channel positions : Front: L C R, Side: L R, LFE
Sampling rate : 48.0 KHz
Bit depth : 16 bits
Compression mode : Lossy
Stream size : 249 MiB (17%)
Alignment : Split accross interleaves
Interleave, duration : 42 ms (1.00 video frame)
Interleave, preload duration : 500 ms

[/code]
pb.wtf



Скачать Принц через торрент http://i65.fastpic.ru/big/2014/1015/a1/1238c4e561943dee660ee249651cb3a1.jpg Скачать, смотреть онлайн Принц бесплантно в хорошем качестве Описание: Согласно сюжету, бывший головорез из Лас-Вегаса возвращается домой и обнаруживает, что его дочь похищена.Рейтинг: Бюджет:$18 ... 9.7 10 21
Торрент: Зарегистрирован [2014-10-15 11:30] · скачан: 722 раз
Статус: T временная
Размер: 1.46 GB
Как cкачать? Как скачать Принц через торрент | UTorrent

% Раздел Тема Автор DL S | L
Мультсериалы [ 7.53 GB ] Принц-дракон / The Dragon Prince / Сезон: 2 / Серии: 1-9 из 9 [2019 WEB-DL 1080p] + [MVO] killermax2013 Скачать
1 | 0
Фильмы [HD 720p, 1080p] (Хороший звук DUB, MVO) [ 7.76 GB ] Гарри Поттер и Принц-полукровка / Harry Potter and the Half-Blood Prince [2009 BDRip 1080p + Оригинал] Бумер Скачать
2 | 0
Фильмы [HD 720p, 1080p] (Хороший звук DUB, MVO) [ 13.13 GB ] Принц Персии: Пески времени / Prince of Persia: The Sands of Time [2010 BDRip 1080p] Venxxx Скачать
1 | 0
Фильмы [HD 720p, 1080p] (Хороший звук DUB, MVO) [ 13.13 GB ] Принц Персии: Пески времени / Prince of Persia: The Sands of Time [2010 BDRip 1080p] Зайчина Скачать
1 | 0
Зарубежные сериалы [ 755 MB ] Испанская принцесса / The Spanish Princess / Сезон: 2 / Серии: 1- из 8 [2020 история WEB-DLRip] MVO [Newstudio] bober100 Скачать
1 | 0
Зарубежные сериалы [ 5.43 GB ] Испанская принцесса / The Spanish Princess / Сезон: 2 / Серии: 1-8 из 8 [2020 история WEB-DLRip] [MVO] killermax2013 Скачать
1 | 0
Зарубежные сериалы [ 33.77 GB ] Испанская принцесса / The Spanish Princess / Сезон: 2 / Серии: 1-8 из 8 [2020 история WEB-DL 1080p] [MVO] killermax2013 Скачать
1 | 0


Последний раз редактировалось: _KaisiK_ (2014-12-23 08:44), всего редактировалось 2 раз(а)

28-11-2019 20:33  

Отключить вcю реклaмy на сайте

15-10-2014 15:47 Принц Скачать торрент  

Блин, народ, подскажите о чем этот фильм? Начинал его смотреть раза 3.
Повелся на актеров. Сюжета вообще нет, такое впечатление, что снимали то, что видели. Самое интересное, что перевод был дословный (знаю английский) - т.е. переводчик добросовестно переводил тот бред, что несли актеры. Короче, если кто поймет о чем фильм - отпишитесь, буду проверять комменты.pb.wtf



15-10-2014 17:22 Принц Скачать торрент  

тут виновен вирус иииииииииэболаpb.wtf



    Дорогой пользователь! Огромная просьба, поблагодарите релизера, оцените раздачу и оставьте свои комментарий, если Вы скачали Принц через торрент бесплатно!
    Комментировать посты могут только пользователи прошедшие не сложную регистрацию
    Показать сообщения:    

    Принц через торрент
    Скачать бесплатно Принц
    Принц скачать торрент
    Принц смотреть онлайн
    Cкачать фильм Принц бесплатно
    Принц скачать торрент в хорошем качестве
    Принц смотреть онлайн бесплатно в хорошем качестве


    Вы не можете начинать темы
    Вы не можете отвечать на сообщения
    Вы не можете редактировать свои сообщения
    Вы не можете удалять свои сообщения
    Вы не можете голосовать в опросах
    Вы не можете прикреплять файлы к сообщениям
    Вы можете скачивать файлы