1 сезон

1 сезон

iTunes

1

КиноПоиск HD

Кинопоиск HD

iTunes

13

1 сезон

RePack

30

Новинка

ВАЖНО

ИГРА 18+

pack

RePack

MK11
pack

Легкие деньги

RePack

jed

RePack

fifa19

RePack

RDR2

RePack

NEED FOR SPEED™ PAYBACK

4 сезон

9 сезон

Бесстыжие 9 сезон

Все сериалы

все сериалы на PB.wtf

RePack

FAR CRY 5
  
Magnet ссылка

Сокровище нации / National Treasure (Джон Тёртелтауб / Jon Turteltaub) [2004, США, боевик, триллер, детектив, BDRip] DUB Лицензия pb.wtf

Сокровище нации через торрент pb.wtf

Размер: 2.9 GB | Добавлен: 6 лет 6 мес. назад | Торрент скачан:358 раз
Скачать  

15-10-2014 23:54 Сокровище нации Скачать торрент  

Сокровище нации / National Treasure«Эта тайна хранилась веками... Он думал, что почти разгадал её... Но она оказалась лишь еще одним звеном на пути к сокровищу»
Год выпуска: 2004
Страна: США
Жанр: боевик, триллер, детектив, приключения
Продолжительность: 02:11:04
Перевод: Дубляж - [Лицензия]
Субтитры: Отсутствует
Режиссер: Джон Тёртелтауб / Jon Turteltaub
В ролях:


Николас Кейдж (Benjamin Franklin Gates), Дайан Крюгер (Abigail Chase), Джастин Барта (Riley Poole), Шон Бин (Ian Howe), Джон Войт (Patrick Gates), Харви Кейтель (Sadusky), Кристофер Пламмер (John Adams Gates), Дэвид Дайан Фишер (Shaw), Стюарт Финлэй-МакЛеннан (Powell), Олег Тактаров (Shippen), Стефен А. Поуп (Phil), Энни Пэррис (Agent Dawes)

Описание:
Современные охотники за сокровищами во главе с Беном Франклином Гейтсом узнают старинную легенду о сокровище, спрятанном еще отцами-основателями американского государства Джорджем Вашингтоном, Бенджамином Франклином и Томасом Джефферсоном.
Узнать тайну клада можно с помощью Декларации Независимости США, в которой зашифрована разгадка. Но помимо разгадывания изощренной головоломки, нашим героям предстоит сразиться с любителями легкой наживы, жаждущим погреть руки на достоянии республики...

Рейтинг:
Бюджет:$100 000 000
MPAA: PG - Рекомендуется присутствие родителей
Качество: BDRip
Формат: AVI
Видео кодек:XviD
Аудио кодек:AC3
Видео: XviD, 720x304 (2.35:1), 1806 kbps, 23,976 fps, 0,344 bpp
Аудио №1: AC3 / 5.1 / 48 kHz / 448 kbps / 16 bit - Дублированный (Невафильм)
Аудио №2: AC3 / 5.1 / 48 kHz / 448 kbps / 16 bit - Профессиональный двухголосый (Tycoon-Studio)
Аудио №3: AC3 / 5.1 / 48 kHz / 448 kbps / 16 bit - Профессиональный двухголосый (П. Гланц (Иващенко) и И. Королёва)


General
Complete name : D:\Users\_KaisiK_\uTorrent\КИНО\National.Treasure.2004.Triple.BDRip.avi
Format : AVI
Format/Info : Audio Video Interleave
Format profile : OpenDML
File size : 2.90 GiB
Duration : 2h 11mn
Overall bit rate : 3 166 Kbps
Movie name : Сокровище нации / National Treasure (2004) BDRip
Genre : Боевик, триллер, детектив, приключения
Recorded date : 13.10.2014
Writing application : VirtualDubMod 1.5.10.3 | www.virtualdub-fr.org || (build 2550/release)
Writing library : VirtualDubMod build 2550/release
Copyright : rip by ivandubskoj

Video
ID : 0
Format : MPEG-4 Visual
Format profile : Advanced Simple@L5
Format settings, BVOP : 1
Format settings, QPel : No
Format settings, GMC : No warppoints
Format settings, Matrix : Custom
Codec ID : XVID
Codec ID/Hint : XviD
Duration : 2h 11mn
Bit rate : 1 807 Kbps
Width : 720 pixels
Height : 304 pixels
Display aspect ratio : 2.35:1
Frame rate : 23.976 fps
Color space : YUV
Chroma subsampling : 4:2:0
Bit depth : 8 bits
Scan type : Progressive
Compression mode : Lossy
Bits/(Pixel*Frame) : 0.344
Stream size : 1.65 GiB (57%)
Writing library : XviD 73

Audio #1
ID : 1
Format : AC-3
Format/Info : Audio Coding 3
Mode extension : CM (complete main)
Codec ID : 2000
Duration : 2h 11mn
Bit rate mode : Constant
Bit rate : 448 Kbps
Channel(s) : 6 channels
Channel positions : Front: L C R, Side: L R, LFE
Sampling rate : 48.0 KHz
Bit depth : 16 bits
Compression mode : Lossy
Stream size : 420 MiB (14%)
Alignment : Split accross interleaves
Interleave, duration : 64 ms (1.53 video frames)
Interleave, preload duration : 500 ms
Title : Russian, DUB [Невафильм]

Audio #2
ID : 2
Format : AC-3
Format/Info : Audio Coding 3
Mode extension : CM (complete main)
Codec ID : 2000
Duration : 2h 11mn
Bit rate mode : Constant
Bit rate : 448 Kbps
Channel(s) : 6 channels
Channel positions : Front: L C R, Side: L R, LFE
Sampling rate : 48.0 KHz
Bit depth : 16 bits
Compression mode : Lossy
Stream size : 420 MiB (14%)
Alignment : Split accross interleaves
Interleave, duration : 64 ms (1.53 video frames)
Interleave, preload duration : 500 ms
Title : Russian, DVO [Tycoon-Studio]

Audio #3
ID : 3
Format : AC-3
Format/Info : Audio Coding 3
Mode extension : CM (complete main)
Codec ID : 2000
Duration : 2h 11mn
Bit rate mode : Constant
Bit rate : 448 Kbps
Channel(s) : 6 channels
Channel positions : Front: L C R, Side: L R, LFE
Sampling rate : 48.0 KHz
Bit depth : 16 bits
Compression mode : Lossy
Stream size : 420 MiB (14%)
Alignment : Split accross interleaves
Interleave, duration : 64 ms (1.53 video frames)
Interleave, preload duration : 500 ms
Title : Russian, DVO [П. Гланц и И. Королёва]

[/code]
pb.wtf



Скачать Сокровище нации через торрент http://i66.fastpic.ru/big/2014/1016/39/ab172517425b0e25bcd6915c07ed2539.png Скачать фильм Сокровище нации через торрент бесплантно в хорошем качестве Описание: Современные охотники за сокровищами во главе с Беном Франклином Гейтсом узнают старинную легенду о сокровище, спрятанном еще ... 9.9 10 10
Торрент: Зарегистрирован [2014-10-15 23:54] · скачан: 358 раз
Статус: √ проверено
Размер: 2.9 GB
Как cкачать? Как скачать Сокровище нации через торрент | UTorrent

% Раздел Тема Автор DL S | L
Фильмы 2006-2008 [ 2.92 GB ] Сокровище нации: Книга Тайн / National Treasure: Book of Secrets [2007 BDRip] DUB _KaisiK_ Скачать
1 | 0

28-11-2019 20:33  

Отключить всю рекламу на сайте

30-05-2015 03:39 Сокровище нации Скачать торрент  

классный фильм !!!pb.wtf



    Дорогой пользователь! Огромная просьба, поблагодарите релизера, оцените раздачу и оставьте свои комментарий, если Вы скачали Сокровище нации через торрент бесплатно! Внесите свою лепту в развитие PiratBit!
    Комментировать посты могут только пользователи прошедшие не сложную регистрацию
    Показать сообщения:    

    Сокровище нации через торрент
    Скачать бесплатно Сокровище нации
    Сокровище нации скачать торрент
    Сокровище нации смотреть онлайн
    Cкачать фильм Сокровище нации бесплатно
    Сокровище нации скачать торрент в хорошем качестве
    Сокровище нации смотреть онлайн бесплатно в хорошем качестве


    Вы не можете начинать темы
    Вы не можете отвечать на сообщения
    Вы не можете редактировать свои сообщения
    Вы не можете удалять свои сообщения
    Вы не можете голосовать в опросах
    Вы не можете прикреплять файлы к сообщениям
    Вы можете скачивать файлы