Ссылка на приватное зеркало нашего сайта всего за 1$. Внимание количество ограничено!!!

2 сезон

iTunes

1 сезон

1

iTunes

iTunes

iTunes

1 сезон

RePack

30

ИГРА 18+

pack

ВАЖНО

!!Акция!!

Alien_RageХит недели

RePack

MK11
pack

Забери бонус

RePack

jed

!!Акция!!

Alien_Rage

RePack

fifa19

RePack

Assassins Creed: Odyssey

RePack

NEED FOR SPEED™ PAYBACK

4 сезон

9 сезон

Бесстыжие 9 сезон

Все сериалы

все сериалы на PB.wtf

RePack

FAR CRY 5
  

Почтальон Пэт / Postman Pat: The Movie (Майкл Д’Иса-Хоган / Michael D'Isa-Hogan) [2014, Великобритания, США, мультфильм, комедия, семейный, HDRip, Дубляж - Лицензия / iTunes] pb.wtf

Почтальон Пэт через торрент pb.wtf

Размер: 1.48 GB | Добавлен: 6 лет назад | Торрент скачан:333 раза
Скачать  

16-10-2014 00:20 Почтальон Пэт Скачать торрент  

Почтальон Пэт / Postman Pat: The Movie«Он знает как доставить»
Год выпуска: 2014
Страна: Великобритания, США
Жанр: мультфильм, комедия, семейный
Продолжительность: 01:27:51
Перевод: Дубляж - [Лицензия / iTunes]
Субтитры: Отсутствует
Режиссер: Майкл Д’Иса-Хоган / Michael D'Isa-Hogan
В ролях:


Джим Бродбент (CEO, озвучка), Джейн Карр (Mrs. Goggins, озвучка), Робин Аткин Даунс (Simon Cowbell, озвучка), Сьюзэн Дюрден (Sara Clifton, озвучка), Грег Эллис (Jimmy, озвучка), Руперт Гринт (Josh, озвучка), Дэн Хилдебранд (Ted Glenn, озвучка), Ронан Китинг (Postman Pat / исполнитель песни), Стивен Мэнгэн (Postman Pat, озвучка), Парминдер К. Награ (Nisha Bains, озвучка), Т.Дж. Рамини (Ben Taylor, озвучка), Енн Рейтел (PC Selby / Reverend Timms, озвучка)

Описание:
Сколько нужно почтальонов для спасения мира? Достаточно одного, если он работает в паре с любопытным котом, готовым к любым приключениям.

Рейтинг:

Качество: HDRip
Формат: AVI
Видео кодек:XviD
Аудио кодек:AC3
Видео: XviD, 720x384 (1.875), 2024 kbps, 23,976 fps, 0,305 bpp
Аудио: AC3 / 5.1 / 48 kHz / 384 kbps / 16 bit

General
Complete name : D:\Users\_KaisiK_\uTorrent\МУЛЬТИКИ\Po4taljon.Pet.2014.D.HDRip.1400MB.avi
Format : AVI
Format/Info : Audio Video Interleave
File size : 1.48 GiB
Duration : 1h 27mn
Overall bit rate : 2 418 Kbps
Writing application : VirtualDubMod 1.5.10.3 | www.virtualdub-fr.org || (build 2550/release)
Writing library : VirtualDubMod build 2550/release

Video
ID : 0
Format : MPEG-4 Visual
Format profile : Advanced Simple@L5
Format settings, BVOP : 2
Format settings, QPel : No
Format settings, GMC : No warppoints
Format settings, Matrix : Default (MPEG)
Codec ID : XVID
Codec ID/Hint : XviD
Duration : 1h 27mn
Bit rate : 2 025 Kbps
Width : 720 pixels
Height : 384 pixels
Display aspect ratio : 1.875
Frame rate : 23.976 fps
Color space : YUV
Chroma subsampling : 4:2:0
Bit depth : 8 bits
Scan type : Progressive
Compression mode : Lossy
Bits/(Pixel*Frame) : 0.305
Stream size : 1.24 GiB (84%)
Writing library : XviD 1.2.1 (UTC 2008-12-04)

Audio
ID : 1
Format : AC-3
Format/Info : Audio Coding 3
Mode extension : CM (complete main)
Codec ID : 2000
Duration : 1h 27mn
Bit rate mode : Constant
Bit rate : 384 Kbps
Channel(s) : 6 channels
Channel positions : Front: L C R, Side: L R, LFE
Sampling rate : 48.0 KHz
Bit depth : 16 bits
Compression mode : Lossy
Stream size : 241 MiB (16%)
Alignment : Split accross interleaves
Interleave, duration : 42 ms (1.00 video frame)
Interleave, preload duration : 500 ms

[/code]
pb.wtf



Скачать Почтальон Пэт через торрент http://i68.fastpic.ru/big/2014/1016/19/01cc92815184ddbe56249ffde056e819.png Скачать фильм Почтальон Пэт через торрент бесплантно в хорошем качестве Описание: Сколько нужно почтальонов для спасения мира? Достаточно одного, если он работает в паре с любопытным котом, готовым к любым ... 10 10 11
Торрент: Зарегистрирован [2014-10-16 00:20] · скачан: 333 раз
Статус: √ проверено
Размер: 1.48 GB
Как cкачать? Как скачать Почтальон Пэт через торрент | qTorrent

% Раздел Тема Автор DL S | L
Зарубежные Мультфильмы (DVD) [ 4.31 GB ] Почтальон Пэт / Postman Pat: The Movie [2014 мультфильм DVD5] R5 voovaz Скачать
1 | 0
Иностранные мультфильмы [ 1.46 GB ] Почтальон Пэт / Postman Pat: The Movie [2014 мультфильм BDRip ] coc900 Скачать
1 | 0
3D Мультфильмы [ 10.01 GB ] Почтальон Пэт в 3Д / Postman Pat: The Movie 3D [2014 Мультфильм полнометражный BDrip 1080p]Full OverUnder / Вертикальная стереопара serega768 Скачать
1 | 0

28-11-2019 20:33  

Отключить всю рекламу на сайте

    Дорогой пользователь! Огромная просьба, поблагодарите релизера, оцените раздачу и оставьте свои комментарий, если Вы скачали Почтальон Пэт через торрент бесплатно! Внесите свою лепту в развитие PiratBit!
    Комментировать посты могут только пользователи прошедшие не сложную регистрацию
    Показать сообщения:    

    Почтальон Пэт через торрент
    Скачать бесплатно Почтальон Пэт
    Почтальон Пэт скачать торрент
    Почтальон Пэт смотреть онлайн
    Cкачать фильм Почтальон Пэт бесплатно
    Почтальон Пэт скачать торрент в хорошем качестве
    Почтальон Пэт смотреть онлайн бесплатно в хорошем качестве


    Вы не можете начинать темы
    Вы не можете отвечать на сообщения
    Вы не можете редактировать свои сообщения
    Вы не можете удалять свои сообщения
    Вы не можете голосовать в опросах
    Вы не можете прикреплять файлы к сообщениям
    Вы можете скачивать файлы