1 сезон

3 сезон

iTunes

1

Line

MVO

iTunes

13

1 сезон

RePack

30

Deluxe

pack

Лицензия

ВАЖНО

ИГРА 18+

pack

RePack

MK11

RePack

jed

RePack

fifa19

RePack

RDR2

RePack

NEED FOR SPEED™ PAYBACK

4 сезон

9 сезон

Бесстыжие 9 сезон

Все сериалы

все сериалы на PB.wtf

RePack

FAR CRY 5

Anonymous, добрый вечер, мы катастрофически не успеваем собрать деньги на оплату серверов, помогите нам пожалуйста 5,10,15р., для нас важна любая помощь . В качестве благодарности мы отключим Вам всю рекламу на сайте (укажите свой ник в строку Ваше имя)!

×
  
Magnet ссылка

Хоть раз в жизни / Begin again (Джон Карни / John Carney) [2013, драма, мелодрама, комедия, музыка, DVD5] R5 pb.wtf

Хоть раз в жизни через торрент pb.wtf

Размер: 4.06 GB | Добавлен: 6 лет 9 мес. назад | Торрент скачан:23 раза
Скачать  

16-10-2014 07:51 Хоть раз в жизни Скачать торрент  


Хоть раз в жизни / Begin again
«Поверь. Решись. Рискни»
Страна: США
Студия: Apatow Productions, Exclusive Media Group, Likely Story, Sycamore Pictures
Жанр: драма, мелодрама, комедия, музыка
Год выпуска: 2013
Мировая премьера: 7 сентября 2013
Российская премьера: 3 июля 2014
Дата выхода DVD: 7 октября 2014
Продолжительность: 01:40:17
Перевод: Профессиональный (дублированный) [Лицензия]
Cубтитры: нет
Оригинальная аудиодорожка: нет
Режиссер: Джон Карни / John Carney
В ролях: Джеймс Корден, Кира Найтли, Марк Руффало, Хейли Стайнфелд, Мос Деф, Карен Питтман, Пол Ромеро, Кэтрин Кинер, Эндрю Селлон, Эд Реннингер
Описание: Они живут в сердце музыкального мира, в Нью-Йорке. Дэн — легенда шоу-бизнеса и бывший глава музыкального лейбла. Грета — музыкант и бывшая девушка рок-звезды. Но люди бывшими и оказываются для того, чтобы начать все сначала.
Случайная встреча с Гретой дает Дэну новый шанс. Они решают вместе записать альбом. У них нет ни денег, ни профессиональных музыкантов, но все это не важно, потому что Грета и Дэн готовы к самым неожиданным поворотам и в музыке, и в любви. Их студией становится весь Нью-Йорк.

Бонусы: нет

Релиз группы:
Качество: DVD5 R5
Формат: DVD-Video
Видео кодек: MPEG2
Аудио кодек: AC3
Видео: PAL 16:9 (720x576(0.496)) MPEG Video, 25,000 кадр/сек, 5139 Кбит/сек
Аудио: Russian (Dolby AC3, 6 ch) 448 Кбит/сек, 48,0 КГц



Title: Hot.raz.v.zhizni.2013.DVD5
Size: 4.06 Gb ( 4 257 436,00 KBytes ) - DVD-5
Enabled regions: 1, 2, 3, 4, 5, 6, 7, 8

VTS_01 :
Play Length: 00:00:19
Video: PAL 16:9 (720x576) VBR, Auto Pan&Scan, Auto Letterboxed
Audio:
Not specified (Dolby AC3, 2 ch)

VTS_02 :
Play Length: 01:40:17
Video: PAL 16:9 (720x576) VBR, Auto Letterboxed
Audio:
Not specified (Dolby AC3, 6 ch)

* Menus Information *

VIDEO_TS Menu
Video:
PAL 16:9 (720x576) VBR
Auto Pan&Scan, Auto Letterboxed
English Language Unit :
Title Menu

VTS_01 Menu
Video:
PAL 16:9 (720x576) VBR
Auto Pan&Scan, Auto Letterboxed
Audio:
Not specified (Dolby AC3, 6 ch)
English Language Unit :
Root Menu

VTS_02 Menu
Video:
PAL 4:3 (720x576) VBR
English Language Unit :
Root Menu
Общее
Полное имя : F:\Новинки 2014\Hot.raz.v.zhizni.2013.DVD5\VIDEO_TS\VTS_02_2.VOB
Формат : MPEG-PS
Размер файла : 1024 Мбайт
Продолжительность : 25 м.
Режим общего битрейта : Переменный
Общий поток : 5700 Кбит/сек

Видео
Идентификатор : 224 (0xE0)
Формат : MPEG Video
Версия формата : Version 2
Профиль формата : Main@Main
Параметр BVOP формата : Да
Параметр матрицы формата : Выборочная
Параметр GOP формата : M=3, N=15
Format_Settings_PictureStructure : Frame
Продолжительность : 25 м.
Вид битрейта : Переменный
Битрейт : 5139 Кбит/сек
Максимальный битрейт : 9000 Кбит/сек
Ширина : 720 пикселей
Высота : 576 пикселей
Соотношение сторон : 16:9
Частота кадров : 25,000 кадров/сек
Стандарт вещания : PAL
Цветовое пространство : YUV
Субдискретизация насыщенности : 4:2:0
Битовая глубина : 8 бит
Тип развёртки : Чересстрочная
Порядок развёртки : Верхнее поле первое
Метод сжатия : С потерями
Бит/(Пиксели*Кадры) : 0.496
Временной код первого кадра : 00:27:52:21
Оригинал временного кода : Group of pictures header
Размер потока : 923 Мбайт (90%)

Аудио
Идентификатор : 189 (0xBD)-128 (0x80)
Формат : AC-3
Формат/Информация : Audio Coding 3
Расширение режима : CM (complete main)
Параметр Endianness формата : Big
Режим смешивания : DVD-Video
Продолжительность : 25 м.
Вид битрейта : Постоянный
Битрейт : 448 Кбит/сек
Каналы : 6 каналов
Расположение каналов : Front: L C R, Side: L R, LFE
Частота : 48,0 КГц
Битовая глубина : 16 бит
Метод сжатия : С потерями
Задержка видео : -328 мс.
Размер потока : 80,5 Мбайт (8%)










pb.wtf



Скачать Хоть раз в жизни через торрент http://i67.fastpic.ru/big/2014/1016/9e/dc5f0583db3a100f15b8ae14a9d91c9e.jpg Скачать фильм Хоть раз в жизни через торрент бесплантно в хорошем качестве Описание: Они живут в сердце музыкального мира, в Нью-Йорке. Дэн — легенда шоу-бизнеса и бывший глава музыкального лейбла. Грета — музыкант ... 10 10 1
Торрент: Зарегистрирован [2014-10-16 07:51] · скачан: 23 раз
Статус: √ проверено
Размер: 4.06 GB
Как cкачать? Как скачать Хоть раз в жизни через торрент | UTorrent

28-11-2019 20:33  

Отключить всю рекламу на сайте

    Дорогой пользователь! Огромная просьба, поблагодарите релизера, оцените раздачу и оставьте свои комментарий, если Вы скачали Хоть раз в жизни через торрент бесплатно! Внесите свою лепту в развитие PiratBit!
    Комментировать посты могут только пользователи прошедшие не сложную регистрацию
    Показать сообщения:    

    Хоть раз в жизни через торрент
    Скачать бесплатно Хоть раз в жизни
    Хоть раз в жизни скачать торрент
    Хоть раз в жизни смотреть онлайн
    Cкачать фильм Хоть раз в жизни бесплатно
    Хоть раз в жизни скачать торрент в хорошем качестве
    Хоть раз в жизни смотреть онлайн бесплатно в хорошем качестве


    Вы не можете начинать темы
    Вы не можете отвечать на сообщения
    Вы не можете редактировать свои сообщения
    Вы не можете удалять свои сообщения
    Вы не можете голосовать в опросах
    Вы не можете прикреплять файлы к сообщениям
    Вы можете скачивать файлы