2 сезон

iTunes

MVO

1

2 сезон

iTunes

iTunes

1 сезон

RePack

30

Ultimate

ВАЖНО

ИГРА 18+

pack

RePack

MK11
pack

Легкие деньги

RePack

jed

RePack

fifa19

RePack

RDR2

RePack

NEED FOR SPEED™ PAYBACK

4 сезон

9 сезон

Бесстыжие 9 сезон

Все сериалы

все сериалы на PB.wtf

RePack

FAR CRY 5

Anonymous, добрый день, мы не успеваем собрать деньги на оплату серверов за декабрь и январь, помогите нам пожалуйста в это трудное время. В качестве благодарности мы отключим Вам всю рекламу на сайте (укажите свой ник в строку Ваше имя)!

×
  
Magnet ссылка

Катастрофа / Blue Ruin (Джереми Солнье / Jeremy Saulnier) [2013, США, триллер, HDRip, Профессиональный многоголосый - НТВ+] pb.wtf

Катастрофа через торрент pb.wtf

Размер: 1.37 GB | Добавлен: 6 лет 3 мес. назад | Торрент скачан:575 раз
Скачать  

16-10-2014 14:03 Катастрофа Скачать торрент  

Катастрофа / Blue Ruin «Revenge comes home»
Год выпуска: 2013
Страна: США
Жанр: триллер
Продолжительность: 01:30:24
Перевод: Профессиональный многоголосый [НТВ+]
Субтитры: Отсутствует
Режиссер: Джереми Солнье / Jeremy Saulnier
В ролях:


Мэйкон Блэр (Dwight), Девин Рэтрей (Ben Gaffney), Эми Харгривз (Sam), Кевин Колак (Teddy Cleland), Ив Плам (Kris Cleland), Дэвид В. Томпсон (William), Brent Werzner (Carl Cleland), Стэйси Рок (Hope Cleland), Сидне Андерсон (Officer Eddy), Бонни Джонсон (Margaret), Daniel L. Kelly (Large Man), Ydaiber Orozco (Amanda)

Описание:
Спокойная жизнь таинственного затворника переворачивается с ног на голову, когда он возвращается туда, где провел детство, желая отомстить. Он ввязывается в жестокую борьбу, чтобы защитить свою семью...

Рейтинг:

MPAA: R - Лицам до 17 лет обязательно присутствие взрослого
Качество: HDRip
Формат: AVI
Видео кодек:XviD
Аудио кодек:AC3
Видео: XviD, 720x304 (2.35:1), 1968 kbps, 23,976 fps, 0,375 bpp
Аудио: AC3 / 2.0 / 48 kHz / 192 kbps / 16 bit

General
Complete name : D:\Users\_KaisiK_\uTorrent\КИНО\Katastrofa.2013.P.HDRip.avi
Format : AVI
Format/Info : Audio Video Interleave
File size : 1.37 GiB
Duration : 1h 30mn
Overall bit rate : 2 170 Kbps
Writing application : VirtualDubMod 1.5.10.2 (build 2540/release)
Writing library : VirtualDubMod build 2540/release

Video
ID : 0
Format : MPEG-4 Visual
Format profile : Advanced Simple@L5
Format settings, BVOP : 2
Format settings, QPel : No
Format settings, GMC : No warppoints
Format settings, Matrix : Default (MPEG)
Codec ID : XVID
Codec ID/Hint : XviD
Duration : 1h 30mn
Bit rate : 1 969 Kbps
Width : 720 pixels
Height : 304 pixels
Display aspect ratio : 2.35:1
Frame rate : 23.976 fps
Color space : YUV
Chroma subsampling : 4:2:0
Bit depth : 8 bits
Scan type : Progressive
Compression mode : Lossy
Bits/(Pixel*Frame) : 0.375
Stream size : 1.24 GiB (91%)
Writing library : XviD 1.2.1 (UTC 2008-12-04)

Audio
ID : 1
Format : AC-3
Format/Info : Audio Coding 3
Mode extension : CM (complete main)
Codec ID : 2000
Duration : 1h 30mn
Bit rate mode : Constant
Bit rate : 192 Kbps
Channel(s) : 2 channels
Channel positions : Front: L R
Sampling rate : 48.0 KHz
Bit depth : 16 bits
Compression mode : Lossy
Stream size : 124 MiB (9%)
Alignment : Split accross interleaves
Interleave, duration : 42 ms (1.00 video frame)
Interleave, preload duration : 500 ms

[/code]
pb.wtf



Скачать Катастрофа через торрент http://i67.fastpic.ru/big/2014/1016/7f/0208138d1dede8bb49f88e8c8421857f.jpg Скачать фильм Катастрофа через торрент бесплантно в хорошем качестве Описание: Спокойная жизнь таинственного затворника переворачивается с ног на голову, когда он возвращается туда, где провел детство, желая ... 9.2 10 19
Info! Серебряная раздача, засчитывается только 50% скачанного.
Торрент: Зарегистрирован [2014-10-16 14:03] · скачан: 575 раз
Статус: √ проверено
Размер: 1.37 GB
Как cкачать? Как скачать Катастрофа через торрент | UTorrent

% Раздел Тема Автор DL S | L
Фильмы [HD 720p, 1080p] (Хороший звук DUB, MVO) [ 3.74 GB ] Катастрофа / Blue Ruin [2013 BDRip 720p] MVO AVO potroks Скачать
1 | 0
# Фильмы 2013 [DVDrip, WEB-DLRip, HDrip] [ 1.85 GB ] Обломки прошлого / Blue Ruin [2013 BDRip многоголосый] Assasinca Скачать
1 | 0
Фильмы с авторской озвучкой [ 4.21 GB ] Катастрофа / Обломки прошлого / Blue Ruin [ 2013 BDRip 720p / AVO Ворон Скачать
1 | 0
Фильмы с авторской озвучкой [ 1.46 GB ] Катастрофа / Обломки прошлого / Blue Ruin [ 2013 BDRip / AVO Ворон Скачать
1 | 0


Последний раз редактировалось: _KaisiK_ (2014-12-23 09:09), всего редактировалось 1 раз

28-11-2019 20:33  

Отключить всю рекламу на сайте

16-10-2014 14:24 Катастрофа Скачать торрент  

Озвучка НТВ нормальная?pb.wtf



16-10-2014 15:02 Катастрофа Скачать торрент  

Nibler99 писал(а):

Озвучка НТВ нормальная?

да нормаpb.wtf



    Дорогой пользователь! Огромная просьба, поблагодарите релизера, оцените раздачу и оставьте свои комментарий, если Вы скачали Катастрофа через торрент бесплатно! Внесите свою лепту в развитие PiratBit!
    Комментировать посты могут только пользователи прошедшие не сложную регистрацию
    Показать сообщения:    

    Катастрофа через торрент
    Скачать бесплатно Катастрофа
    Катастрофа скачать торрент
    Катастрофа смотреть онлайн
    Cкачать фильм Катастрофа бесплатно
    Катастрофа скачать торрент в хорошем качестве
    Катастрофа смотреть онлайн бесплатно в хорошем качестве


    Вы не можете начинать темы
    Вы не можете отвечать на сообщения
    Вы не можете редактировать свои сообщения
    Вы не можете удалять свои сообщения
    Вы не можете голосовать в опросах
    Вы не можете прикреплять файлы к сообщениям
    Вы можете скачивать файлы