Ссылка на приватное зеркало всего за 1$. Внимание количество ограничено!!!

iTunes

iTunes

iTunes

1

iTunes

iTunes

iTunes

WEBRip

iTunes

30
pack

$ от Little Big

ВАЖНО

!!Акция!!

Alien_RageХит недели

RePack

Resident Evil 21

ИГРА 18+

pack

RePack

jed

!!Акция!!

Alien_Rage

RePack

fifa19

RePack

Assassins Creed: Odyssey

RePack

NEED FOR SPEED™ PAYBACK

4 сезон

9 сезон

Бесстыжие 9 сезон

Все сериалы

все сериалы на PB.wtf

RePack

FAR CRY 5
  

Котенок (Иван Попов) [1996, Россия, семейный, DVDRip] pb.wtf

Котенок через торрент pb.wtf

Размер: 1.37 GB | Добавлен: 5 лет 9 мес. назад | Торрент скачан:60 раз
Скачать  

16-10-2014 14:21 Котенок Скачать торрент  

Котенок

Год выпуска: 1996
Страна: Россия
Жанр: семейный
Продолжительность: 01:20:26
Перевод: Не требуется
Субтитры: Отсутствует
Режиссер: Иван Попов
В ролях:


Андрей Кузнецов (Федин), Людмила Аринина (бабушка), Алексей Войтюк (отец), Татьяна Грауз (мать), Мария Попова (Маня), Александр Попов (Саня), Александр Чургин (кондуктор), Александр Песков (бандит №1), Олег Вершинин (бандит №2), Андрей Звягинцев, Елена Фадеева

Описание:
Девочке на птичьем рынке купили котенка, и он стал любимцем в семье музыканта. Но случайно Тиграша, так его назвали, выпал из окна и попал на брезентовую крышу «Газели». В результате путешествия по предновогодней Москве Тиграша уехал далеко от своего дома. Ему повезло - он попал в руки одинокого доброго человека, уже приютившего много кошек в своей комнатушке.

Рейтинг:

Качество: DVDRip
Формат: AVI
Видео кодек:XviD
Аудио кодек:AC3
Видео: XviD, 688x528 (4:3), 2229 kbps, 25 fps, 0,246 bpp
Аудио: AC3 / 2.0 / 48 kHz / 192 kbps / 16 bit - Русский

General
Complete name : D:\Users\_KaisiK_\uTorrent\КИНО\Kotyonok.1996.DVDRip.avi
Format : AVI
Format/Info : Audio Video Interleave
File size : 1.37 GiB
Duration : 1h 20mn
Overall bit rate : 2 430 Kbps
Movie name : Котёнок (1996) DVDRip
Genre : Драма, семейный, детский
Recorded date : 15.10.2014
Writing application : VirtualDubMod 1.5.10.3 | www.virtualdub-fr.org || (build 2550/release)
Writing library : VirtualDubMod build 2550/release
Copyright : rip by ivandubskoj

Video
ID : 0
Format : MPEG-4 Visual
Format profile : Advanced Simple@L5
Format settings, BVOP : 1
Format settings, QPel : No
Format settings, GMC : No warppoints
Format settings, Matrix : Default (MPEG)
Codec ID : XVID
Codec ID/Hint : XviD
Duration : 1h 20mn
Bit rate : 2 230 Kbps
Width : 688 pixels
Height : 528 pixels
Display aspect ratio : 4:3
Frame rate : 25.000 fps
Color space : YUV
Chroma subsampling : 4:2:0
Bit depth : 8 bits
Scan type : Progressive
Compression mode : Lossy
Bits/(Pixel*Frame) : 0.246
Stream size : 1.25 GiB (92%)
Writing library : XviD 73

Audio
ID : 1
Format : AC-3
Format/Info : Audio Coding 3
Mode extension : CM (complete main)
Codec ID : 2000
Duration : 1h 20mn
Bit rate mode : Constant
Bit rate : 192 Kbps
Channel(s) : 2 channels
Channel positions : Front: L R
Sampling rate : 48.0 KHz
Bit depth : 16 bits
Compression mode : Lossy
Stream size : 110 MiB (8%)
Alignment : Split accross interleaves
Interleave, duration : 64 ms (1.60 video frames)
Interleave, preload duration : 500 ms
Title : Russian

[/code]
pb.wtf



Скачать Котенок через торрент http://i67.fastpic.ru/big/2014/1016/fa/d756206da3424c7116286e92720848fa.jpg Скачать фильм Котенок через торрент бесплантно в хорошем качестве Описание: Девочке на птичьем рынке купили котенка, и он стал любимцем в семье музыканта. Но случайно Тиграша, так его назвали, выпал из ... 10 10 5
Торрент: Зарегистрирован [2014-10-16 14:21] · скачан: 60 раз
Статус: √ проверено
Размер: 1.37 GB
Как cкачать? Как скачать Котенок через торрент | qTorrent

% Раздел Тема Автор DL S | L
Порно фильмы с сюжетом [ 700 MB ] Шикарный Котенок / Posh Kitten [2005 Feature Foreign Straight Oral Big Tits Porn Stars DVDRip 288p] sheker187 Скачать
1 | 0
Мультсериалы [ 941 MB ] Котенок по имени Гав / Серии 1-5 из 5 [1976-1982 СССР Мультфильм DVDRip] Deadshit Скачать
1 | 0
Анальный секс [ 413 MB ] Котенок Китти на кушетке с леопардом / Kitty Cat [2012 All Sex Anal SiteRip] orton Скачать
1 | 0
Сцены из фильмов и Сайтрипы с русскими актрисами [ 1.41 GB ] Катя-котёнок и быстрый член / Love Shy - Kitty And Fast Cock. [YoungLegalPorn] [2011 Legal Teen Hardcore All Sex. HDRip. 720p] Pir@tya2010 Скачать
1 | 0
Наши мультфильмы [ 110 MB ] Котенок с улицы Лизюкова / 1988 / DVDRip [1988 Анимация сказка детский DVDRip] Aleg333ator Скачать
1 | 0
Фильмы до 2000 г. [ 362 MB ] Котенок / Kotyonok [1996 Мело TVRip] dimon1695 Скачать
1 | 0

28-11-2019 20:33  

Отключить всю рекламу на сайте

    Дорогой пользователь! Огромная просьба, поблагодарите релизера, оцените раздачу и оставьте свои комментарий, если Вы скачали Котенок через торрент бесплатно! Внесите свою лепту в развитие PiratBit!
    Комментировать посты могут только пользователи прошедшие не сложную регистрацию
    Показать сообщения:    

    Котенок через торрент
    Скачать бесплатно Котенок
    Котенок скачать торрент
    Котенок смотреть онлайн
    Cкачать фильм Котенок бесплатно
    Котенок скачать торрент в хорошем качестве
    Котенок смотреть онлайн бесплатно в хорошем качестве


    Вы не можете начинать темы
    Вы не можете отвечать на сообщения
    Вы не можете редактировать свои сообщения
    Вы не можете удалять свои сообщения
    Вы не можете голосовать в опросах
    Вы не можете прикреплять файлы к сообщениям
    Вы можете скачивать файлы