1 сезон

1 сезон

iTunes

1

КиноПоиск HD

Кинопоиск HD

iTunes

13

1 сезон

RePack

30

Новинка

ВАЖНО

ИГРА 18+

pack

RePack

MK11
pack

Легкие деньги

RePack

jed

RePack

fifa19

RePack

RDR2

RePack

NEED FOR SPEED™ PAYBACK

4 сезон

9 сезон

Бесстыжие 9 сезон

Все сериалы

все сериалы на PB.wtf

RePack

FAR CRY 5
  
Magnet ссылка

Дави на газ! / Gamle mænd i nye biler (Лассе Спанг Ольсен / Lasse Spang Olsen) [2002, Дания, боевик, комедия, криминал, HDRip, Профессиональный (двухголосый)] pb.wtf

Дави на газ! через торрент pb.wtf

Размер: 1.36 GB | Добавлен: 6 лет 5 мес. назад | Торрент скачан:135 раз
Скачать  

16-10-2014 14:36 Дави на газ! Скачать торрент  

Дави на газ! / Gamle mænd i nye biler«Настоящие мужики не тормозят»
Год выпуска: 2002
Страна: Дания
Жанр: боевик, комедия, криминал
Продолжительность: 01:36:21
Перевод: Профессиональный (двухголосый)
Субтитры: Отсутствует
Режиссер: Лассе Спанг Ольсен / Lasse Spang Olsen
В ролях:


Ким Бодния (Harald), Николай Ли Каас (Martin), Томас Виллум Йенсен (Peter), Брайан Паттерсон (Vuk), Торкель Петерссон (Ludvig), Ибен Хьейле (Mille), Йенс Оккинг (Munken), Джейкоб Хаугорд (Erling), Славко Лабович (Ratko), Томас Роде Андерсен (Dan Hansen), Дорте Даугберг (Sygeplejerske), Анна-Бритт Матьясен (Bank assistenter)

Описание:
Гарольд вышел из тюрьмы и планирует вернуться к своему тихому бизнесу в маленькой кафешке. Но друг по кличке Монах обращает к Гарольду предсмертную просьбу - вытащить из тюрьмы сына, отбывающего пожизненный срок. Тихим поварам не суждено поучаствовать в национальном фестивале по выпечке - кондитеры выдвигаются на взятие неприступной тюрьмы...
Естественно, план пойдет враскоряку с первых же минут, сынуля окажется маньяком, в заложницы попадет патентованная суицидница, а местная полиция потеряет в погоне весь свой автопарк. И только, казалось бы, милые повара могут вернуться к любимой выпечке, как сын-маньяк решает устроить родному папаше операцию по пересадкедонорской почки в Боливии. Невозмутимый Гарольд берется организовать ограбление банка...

Рейтинг:

Качество: HDRip
Формат: AVI
Видео кодек:XviD
Аудио кодек:AC3
Видео: XviD, 720x400 (16:9), 1626 kbps, 23,976 fps, 0,236 bpp
Аудио: AC3 / 2.0 / 48 kHz / 384 kbps / 16 bit - Профессиональный (двухголосый)

General
Complete name : D:\Users\_KaisiK_\uTorrent\КИНО\Дави на газ!2002.HDRip.avi
Format : AVI
Format/Info : Audio Video Interleave
Format profile : OpenDML
File size : 1.36 GiB
Duration : 1h 36mn
Overall bit rate : 2 023 Kbps
Writing application : XviD4PSP 6.0 / 54.29.105

Video
ID : 0
Format : MPEG-4 Visual
Format profile : Advanced Simple@L5
Format settings, BVOP : 3
Format settings, QPel : No
Format settings, GMC : 3 warppoints
Format settings, Matrix : Default (H.263)
Codec ID : XVID
Codec ID/Hint : XviD
Duration : 1h 36mn
Bit rate : 1 627 Kbps
Width : 720 pixels
Height : 400 pixels
Display aspect ratio : 16:9
Frame rate : 23.976 fps
Color space : YUV
Chroma subsampling : 4:2:0
Bit depth : 8 bits
Scan type : Progressive
Compression mode : Lossy
Bits/(Pixel*Frame) : 0.236
Stream size : 1.09 GiB (80%)
Writing library : XviD 64

Audio
ID : 1
Format : AC-3
Format/Info : Audio Coding 3
Mode extension : CM (complete main)
Codec ID : 2000
Duration : 1h 36mn
Bit rate mode : Constant
Bit rate : 384 Kbps
Channel(s) : 2 channels
Channel positions : Front: L R
Sampling rate : 48.0 KHz
Bit depth : 16 bits
Compression mode : Lossy
Stream size : 265 MiB (19%)
Alignment : Aligned on interleaves
Interleave, duration : 32 ms (0.77 video frame)

[/code]
pb.wtf



Скачать Дави на газ! через торрент http://i63.fastpic.ru/big/2014/1016/53/9eff1e7ac01470bc141d5eb97144fb53.jpg Скачать фильм Дави на газ! через торрент бесплантно в хорошем качестве Описание: Гарольд вышел из тюрьмы и планирует вернуться к своему тихому бизнесу в маленькой кафешке. Но друг по кличке Монах обращает к ... 9 10 6
Торрент: Зарегистрирован [2014-10-16 14:36] · скачан: 135 раз
Статус: √ проверено
Размер: 1.36 GB
Как cкачать? Как скачать Дави на газ! через торрент | UTorrent

28-11-2019 20:33  

Отключить всю рекламу на сайте

    Дорогой пользователь! Огромная просьба, поблагодарите релизера, оцените раздачу и оставьте свои комментарий, если Вы скачали Дави на газ! через торрент бесплатно! Внесите свою лепту в развитие PiratBit!
    Комментировать посты могут только пользователи прошедшие не сложную регистрацию
    Показать сообщения:    

    Дави на газ! через торрент
    Скачать бесплатно Дави на газ!
    Дави на газ! скачать торрент
    Дави на газ! смотреть онлайн
    Cкачать фильм Дави на газ! бесплатно
    Дави на газ! скачать торрент в хорошем качестве
    Дави на газ! смотреть онлайн бесплатно в хорошем качестве


    Вы не можете начинать темы
    Вы не можете отвечать на сообщения
    Вы не можете редактировать свои сообщения
    Вы не можете удалять свои сообщения
    Вы не можете голосовать в опросах
    Вы не можете прикреплять файлы к сообщениям
    Вы можете скачивать файлы