2 сезон

iTunes

MVO

1

2 сезон

iTunes

iTunes

1 сезон

RePack

30

Новинка

ВАЖНО

ИГРА 18+

pack

RePack

MK11
pack

Легкие деньги

RePack

jed

RePack

fifa19

RePack

RDR2

RePack

NEED FOR SPEED™ PAYBACK

4 сезон

9 сезон

Бесстыжие 9 сезон

Все сериалы

все сериалы на PB.wtf

RePack

FAR CRY 5

Anonymous, добрый вечер, мы не успеваем собрать деньги на оплату серверов за декабрь и январь, помогите нам пожалуйста в это трудное время. В качестве благодарности мы отключим Вам всю рекламу на сайте (укажите свой ник в строку Ваше имя)!

×
  
Magnet ссылка

На гребне / Drift (Бен Нотт, Морган О’Нил) [2013 г., драма, спорт, HDRip, Профессиональный многоголосый] pb.wtf

На гребне через торрент pb.wtf

Размер: 1.36 GB | Добавлен: 6 лет 4 мес. назад | Торрент скачан:276 раз
Скачать  

12-09-2014 16:47 На гребне Скачать торрент  

На гребне / Drift

Год выпуска: 2013
Страна: Австралия
Жанр: драма, спорт
Продолжительность: 01:53:18
Перевод: Профессиональный многоголосый Офицальный

Режиссер: Бен Нотт, Морган О’Нил
Продюссер: Мишель Беннетт, Тим Даффи, Майлс Поллард
Сценарий: Морган О’Нил, Тим Даффи
Премьера в мире: 25 апреля 2013

IMDB 6.30 (3014)


В ролях: Сэм Уортингтон, Завьер Сэмюэл, Лесли-Энн Брандт, Робин Малкольм, Майлс Поллард, Шон Кинэн, Стив Бастони, Аарон Гленнэйн, Бен Мортли, Дэвид Боуэрс

Описание: Действие фильма развивается в Австралии 70-х. Главные герои — братья Фишер. Энди и Джимми больше всего на свете любят оседлать волну побольше. Когда Фишеры были маленькими, их мать переехала из Сиднея в небольшой прибрежный городок Маргарет-Ривер, славящийся своим прибоем. На протяжении 12 лет мальчики развивали свои серферские способности в поисках идеальной волны. Но, несмотря на свой талант, свободолюбивый Джимми пытается помочь семье выбраться из долгов и начинает скатываться в криминальный мир. Тогда Энди принимает важное решение. Он увольняется с работы и помогает младшему брату начать бизнес по продаже снаряжения для серфинга.

Качество: HDRip
Формат: AVI
Видео кодек: XviD
Аудио кодек: AC3
Видео: XviD, 1521 kb/s, 720x304, 24,000 кадра/сек
Аудио: AC3, 192 kb/s (2 ch) 48,0 КГц
Формат : AVI
Формат/Информация : Audio Video Interleave
Размер файла : 1,36 Гбайт
Продолжительность : 1 ч. 53 м.
Общий поток : 1722 Кбит/сек
Программа кодирования : VirtualDubMod 1.5.10.2 (build 2540/release)
Библиотека кодирования : VirtualDubMod build 2540/release

Видео
Идентификатор : 0
Формат : MPEG-4 Visual
Профиль формата : Advanced Simple@L5
Параметр BVOP формата : 2
Параметр QPel формата : Нет
Параметр GMC формата : Без точки перехода
Параметр матрицы формата : Default (MPEG)
Идентификатор кодека : XVID
Идентификатор кодека/Подсказка : XviD
Продолжительность : 1 ч. 53 м.
Битрейт : 1521 Кбит/сек
Ширина : 720 пикселей
Высота : 304 пикселя
Соотношение сторон : 2,35:1
Частота кадров : 24,000 кадра/сек
Цветовое пространство : YUV
Субдискретизация насыщенности : 4:2:0
Битовая глубина : 8 бит
Тип развёртки : Прогрессивная
Метод сжатия : С потерями
Бит/(Пиксели*Кадры) : 0.290
Размер потока : 1,20 Гбайт (88%)
Библиотека кодирования : XviD 1.2.1 (UTC 2008-12-04)

Аудио
Идентификатор : 1
Формат : AC-3
Формат/Информация : Audio Coding 3
Расширение режима : CM (complete main)
Параметр Endianness формата : Big
Идентификатор кодека : 2000
Продолжительность : 1 ч. 53 м.
Вид битрейта : Постоянный
Битрейт : 192 Кбит/сек
Каналы : 2 канала
Расположение каналов : Front: L R
Частота : 48,0 КГц
Битовая глубина : 16 бит
Метод сжатия : С потерями
Размер потока : 156 Мбайт (11%)
Выравнивание : Разделение по промежуткам
Продолжительность промежутка : 42 мс. (1,00 видеокадр)
Время предзагрузки промежутка : 500 мс.
pb.wtf



Скачать На гребне через торрент http://i63.fastpic.ru/big/2014/0912/55/032816e39beffc2fd1d0ce269fb1c655.png Скачать фильм На гребне через торрент бесплантно в хорошем качестве Описание: Действие фильма развивается в Австралии 70-х. Главные герои — братья Фишер. Энди и Джимми больше всего на свете любят оседлать ... 9.1 10 12
Торрент: Зарегистрирован [2014-09-12 16:47] · скачан: 276 раз
Статус: √ проверено
Размер: 1.36 GB
Как cкачать? Как скачать На гребне через торрент | UTorrent

% Раздел Тема Автор DL S | L
Фильмы 2013 [DVDrip, WEB-DLRip, HDrip] [ 1.46 GB ] На гребне / Дрифт / Drift [2013 HDRip многоголосый][] Ворон Скачать
1 | 0
Фильмы [HD 720p, 1080p] (Хороший звук DUB, MVO) [ 7.31 GB ] На гребне / Дрифт / Drift [2013 BDRip 1080p многоголосый][] Ворон Скачать
1 | 0

28-11-2019 20:33  

Отключить всю рекламу на сайте

14-09-2014 17:28 На гребне Скачать торрент  

По описанию отдаленно смахивает "на гребне волны" с К.Ривзомpb.wtf



    Дорогой пользователь! Огромная просьба, поблагодарите релизера, оцените раздачу и оставьте свои комментарий, если Вы скачали На гребне через торрент бесплатно! Внесите свою лепту в развитие PiratBit!
    Комментировать посты могут только пользователи прошедшие не сложную регистрацию
    Показать сообщения:    

    На гребне через торрент
    Скачать бесплатно На гребне
    На гребне скачать торрент
    На гребне смотреть онлайн
    Cкачать фильм На гребне бесплатно
    На гребне скачать торрент в хорошем качестве
    На гребне смотреть онлайн бесплатно в хорошем качестве


    Вы не можете начинать темы
    Вы не можете отвечать на сообщения
    Вы не можете редактировать свои сообщения
    Вы не можете удалять свои сообщения
    Вы не можете голосовать в опросах
    Вы не можете прикреплять файлы к сообщениям
    Вы можете скачивать файлы