новый адрес
Ссылка на приватное зеркало всего за 1$. Внимание количество ограничено!!!

iTunes

1+1

iTunes

мы

WEB-DL

1

iTunes

Чернобыль

iTunes

Ральф против интернета

Лицензия

ПШазам

Лицензия

Оно 2

Лицензия

30
pack

Вам бонус

ВАЖНО

!!Акция!!

Alien_RageХит недели

RePack

Resident Evil 21

ИГРА 18+

pack

RePack

jed

!!Акция!!

Alien_Rage

RePack

fifa19

RePack

Assassins Creed: Odyssey

RePack

NEED FOR SPEED™ PAYBACK

3 сезон

9 сезон

Бесстыжие 9 сезон

Все сериалы

все сериалы на PB.wtf

RePack

FAR CRY 5
Ребята, катастрофически не хватает 1900р. для оплаты серверов за Октябрь (всвязи с блокировками трафик упал в 3 раза), 1-2р., выручайте.
  

Только Бог простит / Only God Forgives (Николас Виндинг Рефн / Nicolas Winding Refn) [2013 г., Триллер, драма, криминал, BDRip-AVC] MVO [TV1000 Action] pb.wtf

Только Бог простит через торрент pb.wtf

Размер: 1.3 GB | Добавлен: 5 лет 7 мес. назад | Торрент скачан:723 раза
Скачать  

26-03-2014 11:12 Только Бог простит Скачать торрент  

Только Бог простит / Only God Forgives
Год выпуска: 2013
Страна: Франция, Таиланд, США, Швеция / Gaumont, A Grand Elephant, Bold Films, Film i Väst
Жанр: Триллер, драма, криминал,
Продолжительность: 01:29:29
Перевод: Профессиональный (многоголосый, закадровый) [TV1000 Action]
Субтитры: Русские, английские

Режиссер: Николас Виндинг Рефн / Nicolas Winding Refn



В ролях: Райан Гослинг, Кристин Скотт Томас, Гордон Браун, Том Берк, Чарли Руедпокэнон,

Описание: Джулиан, бежавший от американского правосудия, руководит в Бангкоке клубом тайского бокса, который служит ему прикрытием для торговли наркотиками. Его мать, глава крупной преступной организации, приезжает из США, чтобы забрать тело своего любимого сына Билли: брата Джулиана только что убили за зверскую расправу над молодой проституткой. Охваченная яростью и жаждой мести мать требует, чтобы Джулиан нашел и покарал убийц. Молодому человеку придется столкнуться с Чангом — странным полицейским на пенсии, которого обожают его коллеги.

Качество: BDRip-AVC
Формат: MKV
Видео кодек: H.264
Аудио кодек: AC3
Видео: 1044x564 (1,85:1), 23,976 fps, 1440 Кbps, 0.102 bit/pixel
Аудио#1: 48 kHz, AC3 Dolby Digital, 2/0 (L,C) ch, 192.00 kbps | RUS
Аудио#2: 48 kHz, AC3 Dolby Digital, 3/2 (L,C,R,l,r) + LFE ch, 448.00 kbps | ENG

Релиз группы:
Автор рипа: potroks





Общее
Уникальный идентификатор : 219219229518601071850670691956924705069 (0xA4EC167D70373366A671F510379D692D)
Полное имя : Tol'ko.Bog.Prostit.2013.DUAL.BDRip.x264.-HELLYWOOD.mkv
Формат : Matroska
Версия формата : Version 4 / Version 2
Размер файла : 1,30 Гбайт
Продолжительность : 1 ч. 29 м.
Общий поток : 2082 Кбит/сек
Название фильма : HELLYWOOD - rip by potroks
Дата кодирования : UTC 2014-03-26 11:04:15
Программа кодирования : mkvmerge v5.9.0 ('On The Loose') built on Dec 15 2012 16:39:58
Библиотека кодирования : libebml v1.3.0 + libmatroska v1.4.0

Видео
Идентификатор : 1
Формат : AVC
Формат/Информация : Advanced Video Codec
Профиль формата : High@L4.1
Параметр CABAC формата : Да
Параметр ReFrames формата : 12 кадров
Идентификатор кодека : V_MPEG4/ISO/AVC
Продолжительность : 1 ч. 29 м.
Битрейт : 1440 Кбит/сек
Ширина : 1044 пикселя
Высота : 564 пикселя
Соотношение сторон : 1,85:1
Режим частоты кадров : Постоянный
Частота кадров : 23,976 кадра/сек
Цветовое пространство : YUV
Субдискретизация насыщенности : 4:2:0
Битовая глубина : 8 бит
Тип развёртки : Прогрессивная
Бит/(Пиксели*Кадры) : 0.102
Размер потока : 896 Мбайт (67%)
Заголовок : Only God Forgives
Библиотека кодирования : x264 core 130 r2273 b3065e6
Настройки программы : cabac=1 / ref=12 / deblock=1:-3:-3 / analyse=0x3:0x133 / me=umh / subme=11 / psy=1 / psy_rd=1.02:0.00 / mixed_ref=1 / me_range=48 / chroma_me=1 / trellis=2 / 8x8dct=1 / cqm=0 / deadzone=21,11 / fast_pskip=0 / chroma_qp_offset=-2 / threads=12 / lookahead_threads=3 / sliced_threads=0 / nr=0 / decimate=0 / interlaced=0 / bluray_compat=0 / constrained_intra=0 / bframes=13 / b_pyramid=2 / b_adapt=2 / b_bias=0 / direct=3 / weightb=1 / open_gop=0 / weightp=2 / keyint=250 / keyint_min=23 / scenecut=40 / intra_refresh=0 / rc_lookahead=60 / rc=2pass / mbtree=0 / bitrate=1440 / ratetol=1.0 / qcomp=0.70 / qpmin=0 / qpmax=69 / qpstep=4 / cplxblur=20.0 / qblur=0.5 / vbv_maxrate=20000 / vbv_bufsize=25000 / nal_hrd=none / ip_ratio=1.35 / pb_ratio=1.30 / aq=1:0.90
Язык : French
Default : Да
Forced : Нет

Аудио #1
Идентификатор : 2
Формат : AC-3
Формат/Информация : Audio Coding 3
Расширение режима : CM (complete main)
Параметр Endianness формата : Big
Идентификатор кодека : A_AC3
Продолжительность : 1 ч. 29 м.
Вид битрейта : Постоянный
Битрейт : 192 Кбит/сек
Каналы : 2 канала
Расположение каналов : Front: L R
Частота : 48,0 КГц
Битовая глубина : 16 бит
Метод сжатия : С потерями
Размер потока : 123 Мбайт (9%)
Заголовок : MVO | DD 2.0 @ 192 kbps - TV1000 Action
Язык : Russian
Default : Да
Forced : Нет

Аудио #2
Идентификатор : 3
Формат : AC-3
Формат/Информация : Audio Coding 3
Расширение режима : CM (complete main)
Параметр Endianness формата : Big
Идентификатор кодека : A_AC3
Продолжительность : 1 ч. 29 м.
Вид битрейта : Постоянный
Битрейт : 448 Кбит/сек
Каналы : 6 каналов
Расположение каналов : Front: L C R, Side: L R, LFE
Частота : 48,0 КГц
Битовая глубина : 16 бит
Метод сжатия : С потерями
Размер потока : 287 Мбайт (22%)
Заголовок : Original | DD 5.1 @ 448 kbps
Язык : English
Default : Нет
Forced : Нет

Текст #1
Идентификатор : 4
Формат : UTF-8
Идентификатор кодека : S_TEXT/UTF8
Идентификатор кодека/Информация : UTF-8 Plain Text
Язык : Russian
Default : Нет
Forced : Нет

Текст #2
Идентификатор : 5
Формат : UTF-8
Идентификатор кодека : S_TEXT/UTF8
Идентификатор кодека/Информация : UTF-8 Plain Text
Заголовок : COLORED
Язык : English
Default : Нет
Forced : Нет

Текст #3
Идентификатор : 6
Формат : UTF-8
Идентификатор кодека : S_TEXT/UTF8
Идентификатор кодека/Информация : UTF-8 Plain Text
Язык : English
Default : Нет
Forced : Нет

Меню
00:00:00.000 : en:00:00:00.000
00:06:43.320 : en:00:06:43.320
00:17:57.285 : en:00:17:57.285
00:23:58.312 : en:00:23:58.312
00:29:55.585 : en:00:29:55.585
00:37:12.814 : en:00:37:12.814
00:46:54.353 : en:00:46:54.353
00:54:06.994 : en:00:54:06.994
01:01:20.260 : en:01:01:20.260
01:08:08.710 : en:01:08:08.710
01:15:42.872 : en:01:15:42.872
01:26:46.159 : en:01:26:46.159

pb.wtf



Скачать Только Бог простит через торрент http://i33.fastpic.ru/big/2014/0326/64/ba14a05fa2a3df9a07bd871169d23a64.png Скачать фильм Только Бог простит через торрент бесплантно в хорошем качестве Описание: Джулиан, бежавший от американского правосудия, руководит в Бангкоке клубом тайского бокса, который служит ему прикрытием для ... 9.9 10 27
Торрент: Зарегистрирован [2014-04-27 07:34] · скачан: 723 раз
Статус: √ проверено
Размер: 1.3 GB
Как cкачать? Как скачать Только Бог простит через торрент | qTorrent

% Раздел Тема Автор DL S | L
Арт-хаус и авторское кино [ 1.37 GB ] Только Бог простит / Only God Forgives [2013 Дания Таиланд Швеция HDRip [TV1000 Action] Ворон Скачать
1 | 0
T Арт-хаус и авторское кино [ 1.46 GB ] Только Бог простит / Only God Forgives [2013 BDRip-AVC Любительский многоголосый] potroks Скачать
1 | 0
Арт-хаус и авторское кино [ 749 MB ] Только Бог простит / Only God Forgives [ 2013 Дания Таиланд Швеция HDRip] VO Назаров Владимир ФёдорOFF Скачать
1 | 0
T Арт-хаус и авторское кино [ 1.4 GB ] Только Бог простит / Only God Forgives [2013 Таиланд Швеция WEB-DLRip Любительский [HamsterStudio] Ворон Скачать
1 | 0
T Фильмы с авторской озвучкой [ 1.37 GB ] Только Бог простит / Only God Forgives [ 2013 Таиланд Швеция WEB-DLRip ] VO [Алексей Матвеев "Doctor_Joker"] Ворон Скачать
1 | 0

28-11-2019 20:33  

Отключить всю рекламу на сайте


26-03-2014 12:58 Только Бог простит Скачать торрент  

посМОТРИМ сия шедевр...pb.wtf



29-04-2014 20:06 Только Бог простит Скачать торрент  

Невероятная нудятина. Пытался постичь глубокий смысл,но удалил через 20 мин просмотра.pb.wtf



    Дорогой пользователь! Огромная просьба, поблагодарите релизера, оцените раздачу и оставьте свои комментарий, если Вы скачали Только Бог простит через торрент бесплатно! Внесите свою лепту в развитие PiratBit!
    Комментировать посты могут только пользователи прошедшие не сложную регистрацию
    Показать сообщения:    

    Только Бог простит через торрент
    Скачать бесплатно Только Бог простит
    Только Бог простит скачать торрент
    Только Бог простит смотреть онлайн
    Cкачать фильм Только Бог простит бесплатно
    Только Бог простит скачать торрент в хорошем качестве
    Только Бог простит смотреть онлайн бесплатно в хорошем качестве


    Вы не можете начинать темы
    Вы не можете отвечать на сообщения
    Вы не можете редактировать свои сообщения
    Вы не можете удалять свои сообщения
    Вы не можете голосовать в опросах
    Вы не можете прикреплять файлы к сообщениям
    Вы можете скачивать файлы