Ссылка на приватное зеркало нашего сайта всего за 1$. Внимание количество ограничено!!!

2 сезон

iTunes

1 сезон

1

iTunes

iTunes

iTunes

1 сезон

RePack

30

ИГРА 18+

pack

ВАЖНО

!!Акция!!

Alien_RageХит недели

RePack

MK11
pack

Забери бонус

RePack

jed

!!Акция!!

Alien_Rage

RePack

fifa19

RePack

Assassins Creed: Odyssey

RePack

NEED FOR SPEED™ PAYBACK

4 сезон

9 сезон

Бесстыжие 9 сезон

Все сериалы

все сериалы на PB.wtf

RePack

FAR CRY 5
  

Спасите Грейс / Saving Grace (Найджел Коул) [2000 г., комедия, криминал, BDRip 720p, Профессиональный многоголосый] R5 pb.wtf

Спасите Грейс через торрент pb.wtf

Размер: 6.81 GB | Добавлен: 6 лет назад | Торрент скачан:49 раз
Скачать  

17-10-2014 05:36 Спасите Грейс Скачать торрент  

Спасите Грейс / Saving Grace
Год выпуска: 2000
Страна: Великобритания
Жанр: комедия, криминал
Продолжительность: 01:34:24
Перевод: Профессиональный многоголосый R5
Субтитры: Russian, English, Norweigan, Swedish

Режиссер: Найджел Коул
Продюссер: Марк Кроуди, Стив Кларк-Холл, Крэйг Фергюсон
Сценарий: Марк Кроуди, Крэйг Фергюсон
Бюджет: $10 000 000
Премьера в мире: 24 января 2000

IMDB 6.90 (13 761)


В ролях: Бренда Блетин, Крэйг Фергюсон, Мартин Клунес, Чеки Карио, Джэми Формен, Билл Бэйли, Валери Эдмонд, Тристан Старрок, Клайв Меррисон, Лесли Филлипс

Описание: У Грейс было свое маленькое уютное счастье: дом и садик с оранжереей. Когда ее гулящий муж свел счеты с жизнью, она с ужасом узнала, что супруг не оставил ей ни пенни, только ужасные долги. Где взять деньги, что выкупить дом и оплатить астрономические счета мужа? Понятно, что осваивать какую-то новую «прибыльную» профессию немолодой и скромной женщине из маленького городка неимоверно сложно. Выход из создавшегося положения подсказал Грейс ее собственный газонокосильщик Мэтью. Грейс совсем забыла, что она — потрясающий садовник: о ее оранжерее местные жители рассказывали легенды. И когда у заядлого «курильщика» Мэтью стал увядать подпольно выращенный кустик конопли, он понял, что Грейс — единственная, кто может спасти растение. Но сможет ли разведение марихуаны спасти саму Грейс?

Доп. информация: В ходе съемок было использовано 150 настоящих кустов марихуаны, на что британские власти выдали специальное разрешение. При этом были выделены охранники, следившие за растениями на съемочной площадке, а также за их транспортировкой в хранилище, где их оставляли на ночь.

Качество: BDRip 720p
Формат: MKV
Видео кодек: AVC
Аудио кодек: AC3
Видео: 1280x692 at 23.976 fps, x264@L4.1, 2pass , ~8434 kbps avg
Аудио#1: Russian: 48 kHz, AC3, 3/2 (L,C,R,l,r) + LFE ch, ~384.00 kbps avg |Многоголосый, R5|
Аудио#2: English: 48 kHz, DTS, 3/2 (L,C,R,l,r) + LFE ch, ~1536.00 kbps avg
General
Unique ID : 189707112065411293811405003826974248545 (0x8EB842C2699CC7F8B5440E5331654E61)
Complete name : /home/sb753/files/Saving.Grace.2000.720p.BluRay.DTS.Rus.Eng.HDCLUB.mkv
Format : Matroska
Format version : Version 2
File size : 6.81 GiB
Duration : 1h 34mn
Overall bit rate : 10.3 Mbps
Movie name : Saving Grace (2000) - Release for HDCLUB
Encoded date : UTC 2010-03-12 18:44:47
Writing application : mkvmerge v3.2.0 ('Beginnings') built on Feb 12 2010 16:46:17
Writing library : libebml v0.7.9 + libmatroska v0.8.1
Attachment : Yes / Yes / Yes

Video
ID : 1
Format : AVC
Format/Info : Advanced Video Codec
Format profile : High@L4.1
Format settings, CABAC : Yes
Format settings, ReFrames : 8 frames
Codec ID : V_MPEG4/ISO/AVC
Duration : 1h 34mn
Bit rate : 8 434 Kbps
Width : 1 280 pixels
Height : 692 pixels
Display aspect ratio : 1.85:1
Frame rate : 23.976 fps
Color space : YUV
Chroma subsampling : 4:2:0
Bit depth : 8 bits
Scan type : Progressive
Bits/(Pixel*Frame) : 0.397
Stream size : 5.43 GiB (80%)
Title : Release for HDCLUB
Writing library : x264 core 84 r1416 fcf70c2
Encoding settings : cabac=1 / ref=9 / deblock=1:-3:-3 / analyse=0x3:0x113 / me=umh / subme=10 / psy=1 / psy_rd=1.0:0.0 / mixed_ref=1 / me_range=24 / chroma_me=1 / trellis=2 / 8x8dct=1 / cqm=0 / deadzone=21,11 / fast_pskip=0 / chroma_qp_offset=-2 / threads=6 / sliced_threads=0 / nr=0 / decimate=0 / mbaff=0 / constrained_intra=0 / bframes=5 / b_pyramid=1 / b_adapt=2 / b_bias=0 / direct=3 / wpredb=1 / wpredp=2 / keyint=250 / keyint_min=25 / scenecut=40 / intra_refresh=0 / rc_lookahead=40 / rc=2pass / mbtree=1 / bitrate=8434 / ratetol=1.0 / qcomp=0.60 / qpmin=10 / qpmax=51 / qpstep=4 / cplxblur=20.0 / qblur=0.5 / ip_ratio=1.40 / aq=1:0.80
Language : English
Default : Yes
Forced : No

Audio #1
ID : 2
Format : AC-3
Format/Info : Audio Coding 3
Mode extension : CM (complete main)
Format settings, Endianness : Big
Codec ID : A_AC3
Duration : 1h 34mn
Bit rate mode : Constant
Bit rate : 384 Kbps
Channel(s) : 6 channels
Channel positions : Front: L C R, Side: L R, LFE
Sampling rate : 48.0 KHz
Bit depth : 16 bits
Compression mode : Lossy
Stream size : 259 MiB (4%)
Title : AC3 5.1 384 Kbps [????????????, R5]
Language : Russian
Default : Yes
Forced : No

Audio #2
ID : 3
Format : DTS
Format/Info : Digital Theater Systems
Codec ID : A_DTS
Duration : 1h 34mn
Bit rate mode : Constant
Bit rate : 1 510 Kbps
Channel(s) : 6 channels
Channel positions : Front: L C R, Side: L R, LFE
Sampling rate : 48.0 KHz
Bit depth : 24 bits
Compression mode : Lossy
Stream size : 1 020 MiB (15%)
Title : DTS 5.1 1536 Kbps [????????]
Language : English
Default : No
Forced : No

Text #1
ID : 4
Format : UTF-8
Codec ID : S_TEXT/UTF8
Codec ID/Info : UTF-8 Plain Text
Language : Russian
Default : No
Forced : No

Text #2
ID : 5
Format : ASS
Codec ID : S_TEXT/ASS
Codec ID/Info : Advanced Sub Station Alpha
Compression mode : Lossless
Language : English
Default : No
Forced : No

Text #3
ID : 6
Format : ASS
Codec ID : S_TEXT/ASS
Codec ID/Info : Advanced Sub Station Alpha
Compression mode : Lossless
Language : Norwegian
Default : No
Forced : No

Text #4
ID : 7
Format : ASS
Codec ID : S_TEXT/ASS
Codec ID/Info : Advanced Sub Station Alpha
Compression mode : Lossless
Language : Swedish
Default : No
Forced : No

pb.wtf



Скачать Спасите Грейс через торрент http://i66.fastpic.ru/big/2014/1017/01/849976dee97bdbd2b99124b25b752e01.png Скачать фильм Спасите Грейс через торрент бесплантно в хорошем качестве Описание: У Грейс было свое маленькое уютное счастье: дом и садик с оранжереей. Когда ее гулящий муж свел счеты с жизнью, она с ужасом ... 8.8 10 4
Торрент: Зарегистрирован [2014-10-17 05:36] · скачан: 49 раз
Статус: √ проверено
Размер: 6.81 GB
Как cкачать? Как скачать Спасите Грейс через торрент | qTorrent

28-11-2019 20:33  

Отключить всю рекламу на сайте

    Дорогой пользователь! Огромная просьба, поблагодарите релизера, оцените раздачу и оставьте свои комментарий, если Вы скачали Спасите Грейс через торрент бесплатно! Внесите свою лепту в развитие PiratBit!
    Комментировать посты могут только пользователи прошедшие не сложную регистрацию
    Показать сообщения:    

    Спасите Грейс через торрент
    Скачать бесплатно Спасите Грейс
    Спасите Грейс скачать торрент
    Спасите Грейс смотреть онлайн
    Cкачать фильм Спасите Грейс бесплатно
    Спасите Грейс скачать торрент в хорошем качестве
    Спасите Грейс смотреть онлайн бесплатно в хорошем качестве


    Вы не можете начинать темы
    Вы не можете отвечать на сообщения
    Вы не можете редактировать свои сообщения
    Вы не можете удалять свои сообщения
    Вы не можете голосовать в опросах
    Вы не можете прикреплять файлы к сообщениям
    Вы можете скачивать файлы