новый адрес пиратбит piratbit
Мега распродажа FORZA HORIZON 4 ULTIMATE+ВСЕ DLC+ОНЛАЙН всего за 499р. 349 руб. (супер цена). Внимание количество ограничено!!!

iTunes

1+1

iTunes

мы

iTunes

1

iTunes

Чернобыль

iTunes

Ральф против интернета

Лицензия

ПШазам

Лицензия

Игра престолов

Лицензия

30
pack

ВАЖНО

!!Акция!!

Alien_RageХит недели

RePack

Resident Evil 21

ИГРА 18+

pack

RePack

Metro:Exodus

!!Акция!!

Alien_Rage

RePack

fifa19

RePack

Assassins Creed: Odyssey

RePack

NEED FOR SPEED™ PAYBACK

3 сезон

9 сезон

Бесстыжие 9 сезон

Все сериалы

все сериалы на PB.wtf

RePack

FAR CRY 5
Ребята, катастрофически не хватает 1900р. для оплаты серверов за Октябрь (всвязи с блокировками трафик упал в 3 раза), 1-2р., выручайте.
  

Кости / Bones / Сезон: 10 / Серии 1-22 из 22 [ 2014 , США , драма, мелодрама, комедия, криминал, детектив WEB-DL 720p] MVO (BaibaKo) pb.wtf

Кости через торрент pb.wtf

Размер: 31.96 GB | Добавлен: 4 года 4 мес. назад | Торрент скачан:41 раз
Скачать  

17-10-2014 08:41 Кости Скачать торрент  

Кости / Bones
«Чтобы Распутать Убийство, Вы Должны Раздеть Его До Костей»


  • Год выпуска: 2014
  • Страна: США
  • Жанр: драма, мелодрама, комедия, криминал, детектив
  • Продолжительность: 00:43:42 (Серия)
  • Перевод: Профессиональный многоголосый закадровый [BaibaKo]

  • В ролях:

    Эмили Дешанель (Dr. Temperance «Bones» Brennan), Дэвид Бореаназ (Special Agent Seeley Booth), Микаэла Конлин (Angela Montenegro), Ти-Джей Тайн (Dr. Jack Hodgins), Тамара Тейлор (Dr. Camille Saroyan), Джон Фрэнсис Дейли (Dr. Lance Sweets), Эрик Миллеган (Zack Addy), Патриция Белчер (Caroline Julian), Юджин Бирд (Dr. Clark Edison), Майкл Терри (Wendell Bray), Карла Галло (Daisy Wick), Джонатан Адамс (Dr. Daniel Goodman)

  • Описание:
    Доктор Темперанс Бреннан - блестящий, но одинокий антрополог, получает то, чего она меньше всего желала - напарника. Бюро посылает ей амбициозного агента ФБР Сили Бута, чтобы помочь в расследовании нераскрытых дел, путем изучения и идентификации костей давно пропавших людей.
    Но давно умершие жертвы не единственное, с чем придется столкнуться Боунс, Буту и их команде, раскрывая преступления, они часто сталкиваются с взяточничеством, коррупцией и местной разрозненностью.
  • Рейтинг:



  • Качество: WEB-DL 720p
  • Формат: :MKV
  • Видео кодек: AVC
  • Аудио кодек: AC3
  • Видео: 1280x720 (16:9), 3877 kbps, 23,976 fps, 0,175 bpp
  • Аудио №1: русский / 5.1 / 48 kHz / 384 kbps / 16 bit
  • Аудио №2: английский / 5.1 / 48 kHz / 384 kbps / 16 bit
  • Релиз от: GEKADOL

    Код:

    Внимание! Раздача ведётся путём добавления новых серий; при каждом добавлении создаётся новый торрент. Чтобы начать докачку новой серии, пользователям необходимо сделать следующее:
    (1) остановить скачивание,
    (2) удалить старый торрент у себя из клиента (старые серии удалять не надо),
    (3) скачать новый торрент и запустить его у себя в клиенте вместо старого, при этом указать клиенту путь в старую папку куда и должно происходить скачивание новых серий.
    Ваш клиент при этом должен произвести хеширование (проверку) старой папки (если не производит сам - помогите ему сделать это), и будет докачивать только те серии которых у вас ещё нет. Старые серии при этом не удаляются, а продолжают раздаваться!
    Eсли вы уже удалили старые серии, то предотвратить повторную закачку старых серий можно, отжав галочку в соответсвующих местах при запуске нового торрента. По возможности, желательно не удалять старые серии как можно дольше чтобы релизёр не столько продолжал раздавать старые серии, а смог сконцентрироваться на новых.


    Код:

    General
    Unique ID                                : 226375735686377136148656826011550314601 (0xAA4E617C60C7B9EE8C24BD3D9D817069)
    Complete name                            : D:\Фильмы\Bones.s10.720p.WEB-DL.BaibaKo\Bones.s10e03.HD720p.WEB-DL.Rus.Eng.BaibaKo.tv.mkv
    Format                                   : Matroska
    Format version                           : Version 4 / Version 2
    File size                                : 1.45 GiB
    Duration                                 : 43mn 42s
    Overall bit rate                         : 4 740 Kbps
    Encoded date                             : UTC 2014-10-16 09:14:50
    Writing application                      : mkvmerge v6.7.0 ('Back to the Ground') 64bit built on Jan  8 2014 15:10:52
    Writing library                          : libebml v1.3.0 + libmatroska v1.4.1

    Video
    ID                                       : 1
    Format                                   : AVC
    Format/Info                              : Advanced Video Codec
    Format profile                           : High@L3.1
    Format settings, CABAC                   : No
    Format settings, ReFrames                : 2 frames
    Codec ID                                 : V_MPEG4/ISO/AVC
    Duration                                 : 43mn 42s
    Bit rate                                 : 3 878 Kbps
    Width                                    : 1 280 pixels
    Height                                   : 720 pixels
    Display aspect ratio                     : 16:9
    Frame rate                               : 23.976 fps
    Color space                              : YUV
    Chroma subsampling                       : 4:2:0
    Bit depth                                : 8 bits
    Scan type                                : Progressive
    Bits/(Pixel*Frame)                       : 0.175
    Stream size                              : 1.18 GiB (82%)
    Language                                 : English
    Default                                  : Yes
    Forced                                   : No
    Color primaries                          : BT.709-5, BT.1361, IEC 61966-2-4, SMPTE RP177
    Transfer characteristics                 : BT.709-5, BT.1361
    Matrix coefficients                      : BT.709-5, BT.1361, IEC 61966-2-4 709, SMPTE RP177

    Audio #1
    ID                                       : 2
    Format                                   : AC-3
    Format/Info                              : Audio Coding 3
    Mode extension                           : CM (complete main)
    Codec ID                                 : A_AC3
    Duration                                 : 43mn 42s
    Bit rate mode                            : Constant
    Bit rate                                 : 384 Kbps
    Channel(s)                               : 6 channels
    Channel positions                        : Front: L C R, Side: L R, LFE
    Sampling rate                            : 48.0 KHz
    Bit depth                                : 16 bits
    Compression mode                         : Lossy
    Stream size                              : 120 MiB (8%)
    Language                                 : Russian
    Default                                  : Yes
    Forced                                   : No

    Audio #2
    ID                                       : 3
    Format                                   : AC-3
    Format/Info                              : Audio Coding 3
    Mode extension                           : CM (complete main)
    Codec ID                                 : A_AC3
    Duration                                 : 43mn 42s
    Bit rate mode                            : Constant
    Bit rate                                 : 384 Kbps
    Channel(s)                               : 6 channels
    Channel positions                        : Front: L C R, Side: L R, LFE
    Sampling rate                            : 48.0 KHz
    Bit depth                                : 16 bits
    Compression mode                         : Lossy
    Stream size                              : 120 MiB (8%)
    Language                                 : English
    Default                                  : No
    Forced                                   : No


    Скриншоты:
    скриншот   скриншот   скриншот   скриншот   скриншот  
    скриншот  

    Раздача ведётся путём добавления новых серий. Добавлена 22 серия (12.07.2015).Просьба перекачать торрент файл.

    pb.wtf



  • Скачать Кости через торрент http://i67.fastpic.ru/big/2014/1017/fb/e551dcaf4e4ff93bb580f47f253b32fb.jpg Скачать фильм Кости через торрент бесплантно в хорошем качестве Описание: Доктор Темперанс Бреннан - блестящий, но одинокий антрополог, получает то, чего она меньше всего желала - напарника. Бюро ... 9.9 10 13
    Info! Золотая раздача, скачанное не засчитывается.
    Торрент: Зарегистрирован [2015-07-12 01:25] · скачан: 41 раз
    Статус: √ проверено
    Размер: 31.96 GB
    Как cкачать? Как скачать Кости через торрент | qTorrent

    % Раздел Тема Автор DL S | L
    Кости [ 12.75 GB ] Кости / Bones / Сезон: 10 / Серии 1-22 из 22 [ 2014 WEB-DLRip] MVO GEKADOL Скачать
    1 | 0


    Последний раз редактировалось: GEKADOL (2015-07-12 01:25), всего редактировалось 12 раз(а)


    >> Регистрируемся здесь <<






    Отзывы и комментарии о схеме читаем и пишем здесь: ---> Отзывы и комментарии о схеме

    Новые благодарочки в телеграм довольных пользователей:
    скриншот   скриншот   скриншот   скриншот   скриншот

    08-12-2014 05:52 Кости Скачать торрент  

    прикольный фильм спс за раздачуpb.wtf



    30-12-2014 04:13 Кости Скачать торрент  

    Sozdatel_1 писал(а):

    прикольный фильм спс за раздачу

    Тоже смотрю) Спасибо за спасибо! :ng:pb.wtf



    17-04-2015 19:12 Кости Скачать торрент  

    сколько то костей собак нет на нихpb.wtf



      Дорогой пользователь! Огромная просьба, поблагодарите релизера, оцените раздачу и оставьте свои комментарий, если Вы скачали Кости через торрент бесплатно! Внесите свою лепту в развитие PiratBit!
      Комментировать посты могут только пользователи прошедшие не сложную регистрацию
      Показать сообщения:    

      Кости через торрент
      Скачать бесплатно Кости
      Кости скачать торрент
      Кости смотреть онлайн
      Cкачать фильм Кости бесплатно
      Кости скачать торрент в хорошем качестве
      Кости смотреть онлайн бесплатно в хорошем качестве


      Вы не можете начинать темы
      Вы не можете отвечать на сообщения
      Вы не можете редактировать свои сообщения
      Вы не можете удалять свои сообщения
      Вы не можете голосовать в опросах
      Вы не можете прикреплять файлы к сообщениям
      Вы можете скачивать файлы