Ссылка на приватное зеркало нашего сайта всего за 1$. Внимание количество ограничено!!!

2 сезон

iTunes

1 сезон

1

iTunes

iTunes

iTunes

1 сезон

RePack

30

ИГРА 18+

pack

ВАЖНО

!!Акция!!

Alien_RageХит недели

RePack

MK11
pack

Забери бонус

RePack

jed

!!Акция!!

Alien_Rage

RePack

fifa19

RePack

Assassins Creed: Odyssey

RePack

NEED FOR SPEED™ PAYBACK

4 сезон

9 сезон

Бесстыжие 9 сезон

Все сериалы

все сериалы на PB.wtf

RePack

FAR CRY 5
  

Таинство / The Sacrament (Тай Уэст / Ti West) [2013, США, ужасы, триллер, HDRip, Любительский (одноголосый)[datynet] pb.wtf

Таинство через торрент pb.wtf

Размер: 1.32 GB | Добавлен: 6 лет назад | Торрент скачан:99 раз
Скачать  

17-10-2014 12:08 Таинство Скачать торрент  

Таинство / The Sacrament
«Жить как одно целое. Умрем как один»


  • Год выпуска: 2013
  • Страна: США
  • Жанр: ужасы, триллер
  • Продолжительность: 01:39:08
  • Перевод: Любительский (одноголосый)[datynet]

  • Режиссер: Тай Уэст / Ti West
  • В ролях:

    Эми Саймец (Caroline), Джо Сванберг (Jake), Кейт Лин Шейл (Sarah), Эй Джей Боуэн (Sam), Джин Джонс (Father), Эндрю Неннингер (Patrick), Шоун Парсонс (Carpenter), Мэдисон Эбшер (Laundry Girl), Донна Биско (Wendy), Conphidance (Guide #1), Лашон Клэй (Robert), Дерек Робертс (Guide #2)

  • Описание:
    Два журналиста едут к родственнику одного из них, который проживает в отдаленной коммуне, жители которой подчиняются таинственному отцу. Не сложно догадаться, что для героев ничем хорошим эта поездка не закончится...
  • Рейтинг:



  • Качество: HDRip
  • Формат: :AVI
  • Видео кодек: XviD
  • Аудио кодек: MP3
  • Видео: 720x400 (16:9), 1699 kbps, 23,976 fps, 0,246 bpp
  • Аудио: 2.0 / 44 kHz / 192 kbps /
  • Релиз от: GEKADOL

    Код:

    General
    Complete name                            : I:\The Sacrament 2014.avi
    Format                                   : AVI
    Format/Info                              : Audio Video Interleave
    File size                                : 1.32 GiB
    Duration                                 : 1h 39mn
    Overall bit rate                         : 1 901 Kbps
    Writing library                          : VirtualDub build 34753/release

    Video
    ID                                       : 0
    Format                                   : MPEG-4 Visual
    Format profile                           : Advanced Simple@L5
    Format settings, BVOP                    : 2
    Format settings, QPel                    : Yes
    Format settings, GMC                     : No warppoints
    Format settings, Matrix                  : Default (MPEG)
    Codec ID                                 : XVID
    Codec ID/Hint                            : XviD
    Duration                                 : 1h 39mn
    Bit rate                                 : 1 700 Kbps
    Width                                    : 720 pixels
    Height                                   : 400 pixels
    Display aspect ratio                     : 16:9
    Frame rate                               : 23.976 fps
    Color space                              : YUV
    Chroma subsampling                       : 4:2:0
    Bit depth                                : 8 bits
    Scan type                                : Progressive
    Compression mode                         : Lossy
    Bits/(Pixel*Frame)                       : 0.246
    Stream size                              : 1.18 GiB (89%)
    Writing library                          : XviD 1.2.1 (UTC 2008-12-04)

    Audio
    ID                                       : 1
    Format                                   : MPEG Audio
    Format version                           : Version 1
    Format profile                           : Layer 3
    Codec ID                                 : 55
    Codec ID/Hint                            : MP3
    Duration                                 : 1h 39mn
    Bit rate mode                            : Constant
    Bit rate                                 : 192 Kbps
    Channel(s)                               : 2 channels
    Sampling rate                            : 44.1 KHz
    Compression mode                         : Lossy
    Stream size                              : 136 MiB (10%)
    Alignment                                : Split accross interleaves
    Interleave, duration                     : 42 ms (1.00 video frame)
    Interleave, preload duration             : 500 ms


    Скриншоты:


    pb.wtf



  • Скачать Таинство через торрент http://i66.fastpic.ru/big/2014/1017/31/bbd3d7c9b837b53876171cd2399e1231.jpg Скачать фильм Таинство через торрент бесплантно в хорошем качестве Описание: Два журналиста едут к родственнику одного из них, который проживает в отдаленной коммуне, жители которой подчиняются ... 10 10 1
    Info! Золотая раздача, скачанное не засчитывается.
    Торрент: Зарегистрирован [2014-10-17 12:08] · скачан: 99 раз
    Статус: T временная
    Размер: 1.32 GB
    Как cкачать? Как скачать Таинство через торрент | qTorrent

    % Раздел Тема Автор DL S | L
    Фильмы с авторской озвучкой [ 2.04 GB ] Таинство / The Sacrament [2013 HDRip Авторский одноголосый "Д. Есарев"] coc900 Скачать
    1 | 0

    28-11-2019 20:33  

    Отключить всю рекламу на сайте

    17-10-2014 15:49 Таинство Скачать торрент  

    и че? 18 раз скачали и не одного отзыва????pb.wtf



    18-10-2014 12:15 Таинство Скачать торрент  

    bael писал(а):

    и че? 18 раз скачали и не одного отзыва????

    все бегут и падают тебе откоментить, потрудись сделать что нибудь сам кроме употребления матов школолото.pb.wtf



    18-10-2014 17:11 Таинство Скачать торрент  

    bael писал(а):

    и че? 18 раз скачали и не одного отзыва????

    "И чё? Ума хватило только на тупой коммент?

    А кино именно тебе не смотреть даже в пьяном угаре....Ведь детская психика так ранима sarcastic sarcastic sarcasticpb.wtf



      Дорогой пользователь! Огромная просьба, поблагодарите релизера, оцените раздачу и оставьте свои комментарий, если Вы скачали Таинство через торрент бесплатно! Внесите свою лепту в развитие PiratBit!
      Комментировать посты могут только пользователи прошедшие не сложную регистрацию
      Показать сообщения:    

      Таинство через торрент
      Скачать бесплатно Таинство
      Таинство скачать торрент
      Таинство смотреть онлайн
      Cкачать фильм Таинство бесплатно
      Таинство скачать торрент в хорошем качестве
      Таинство смотреть онлайн бесплатно в хорошем качестве


      Вы не можете начинать темы
      Вы не можете отвечать на сообщения
      Вы не можете редактировать свои сообщения
      Вы не можете удалять свои сообщения
      Вы не можете голосовать в опросах
      Вы не можете прикреплять файлы к сообщениям
      Вы можете скачивать файлы