2 сезон

iTunes

MVO

1

2 сезон

iTunes

iTunes

1 сезон

RePack

30

Новинка

ВАЖНО

ИГРА 18+

pack

RePack

MK11
pack

Легкие деньги

RePack

jed

RePack

fifa19

RePack

RDR2

RePack

NEED FOR SPEED™ PAYBACK

4 сезон

9 сезон

Бесстыжие 9 сезон

Все сериалы

все сериалы на PB.wtf

RePack

FAR CRY 5

Anonymous, добрый вечер, мы не успеваем собрать деньги на оплату серверов за декабрь и январь, помогите нам пожалуйста в это трудное время. В качестве благодарности мы отключим Вам всю рекламу на сайте (укажите свой ник в строку Ваше имя)!

×
  
Magnet ссылка

Белль / Belle (Амма Асанте) [2013 г., драма, HDRip, Профессиональный многоголосый, Лицензия] pb.wtf

Белль через торрент pb.wtf

Размер: 1.38 GB | Добавлен: 6 лет 2 мес. назад | Торрент скачан:114 раз
Скачать  

17-10-2014 17:03 Белль Скачать торрент  

Белль / Belle Год выпуска: 2013
Страна: Великобритания / DJ Films, Isle of Man Film, British Film Institute (BFI)
Жанр: драма
Продолжительность: 01:43:50
Перевод: Профессиональный многоголосый (Лицензия)

Режиссер: Амма Асанте

В ролях: Мэттью Гуд, Лорен Жюльен-Бокс, Наташа Уильямс, Алан МакКенна, Пенелопа Уилтон, Кара Дженкинс, Эмили Уотсон, Том Уилкинсон, Сара Гадон, Гугу Мбата-Роу

Описание: Сюжет фильма основан на жизни Дайдо Элизабет Белль. Она была внебрачной дочерью капитана королевского флота Джона Линдси, а ее матерью была чернокожая женщина по имени Мария Белль.

Качество: HDRip
Формат: AVI
Видео кодек: XviD
Аудио кодек: AC3
Видео: MPEG4, XviD, 720x304 (2.35:1), 23.976 fps, 1 451 Kbps (0.276 bit/pixel)
Аудио: AC-3, 48.0 KHz, 6 ch, 448 Kbps, CBR


Общее
Полное имя : G:\кино\Белль2013.HDRip.avi
Формат : AVI
Формат/Информация : Audio Video Interleave
Размер файла : 1,38 Гбайт
Продолжительность : 1 ч. 43 м.
Общий поток : 1908 Кбит/сек
Программа кодирования : VirtualDubMod 1.5.10.3 | www.virtualdub-fr.org || (build 2550/release)
Библиотека кодирования : VirtualDubMod build 2550/release

Видео
Идентификатор : 0
Формат : MPEG-4 Visual
Профиль формата : Advanced Simple@L5
Параметр BVOP формата : 2
Параметр QPel формата : Нет
Параметр GMC формата : Без точки перехода
Параметр матрицы формата : Default (H.263)
Идентификатор кодека : XVID
Идентификатор кодека/Подсказка : XviD
Продолжительность : 1 ч. 43 м.
Битрейт : 1451 Кбит/сек
Ширина : 720 пикселей
Высота : 304 пикселя
Соотношение сторон : 2,35:1
Частота кадров : 23,976 кадра/сек
Цветовое пространство : YUV
Субдискретизация насыщенности : 4:2:0
Битовая глубина : 8 бит
Тип развёртки : Прогрессивная
Метод сжатия : С потерями
Бит/(Пиксели*Кадры) : 0.276
Размер потока : 1,05 Гбайт (76%)
Библиотека кодирования : XviD 1.2.1 (UTC 2008-12-04)

Аудио
Идентификатор : 1
Формат : AC-3
Формат/Информация : Audio Coding 3
Расширение режима : CM (complete main)
Параметр Endianness формата : Big
Идентификатор кодека : 2000
Продолжительность : 1 ч. 43 м.
Вид битрейта : Постоянный
Битрейт : 448 Кбит/сек
Каналы : 6 каналов
Расположение каналов : Front: L C R, Side: L R, LFE
Частота : 48,0 КГц
Битовая глубина : 16 бит
Метод сжатия : С потерями
Размер потока : 333 Мбайт (23%)
Выравнивание : Разделение по промежуткам
Продолжительность промежутка : 42 мс. (1,00 видеокадр)
Время предзагрузки промежутка : 500 мс.

pb.wtf



Скачать Белль через торрент http://pic.kartinco.top/images/7/apqgm.jpg Скачать фильм Белль через торрент бесплантно в хорошем качестве Описание: Сюжет фильма основан на жизни Дайдо Элизабет Белль. Она была внебрачной дочерью капитана королевского флота Джона Линдси, а ее ... 9.5 10 11
Торрент: Зарегистрирован [2014-10-17 17:03] · скачан: 114 раз
Статус: √ проверено
Размер: 1.38 GB
Как cкачать? Как скачать Белль через торрент | UTorrent

% Раздел Тема Автор DL S | L
T Фильмы (мультфильмы) cо спонсором показа (Новинки AVI/MKV) [ 3.08 GB ] Джингл Белл / Jingle Belle [2018 Мюзикл WEB-DL 720p] MVO [AlphaProject] bober100 Скачать
1 | 0
T Фильмы (мультфильмы) cо спонсором показа (Новинки AVI/MKV) [ 699 MB ] Джингл Белл / Jingle Belle [2018 Мюзикл WEB-DLRip] MVO [AlphaProject] bober100 Скачать
1 | 0
Фильмы [HD 720p, 1080p] (Хороший звук DUB, MVO) [ 10.04 GB ] Белль и Себастьян: Друзья навек / Belle et Sébastien 3 le dernier chapitre [2017 BDRip 1080p] MVO [СВ Студия] + bober100 Скачать
1 | 0
Фильмы 2017 [DVDrip, WEB-DLRip, HDrip] (DUB, MVO) [ 1.42 GB ] Белль и Себастьян: Друзья навек / Belle et Sébastien 3 le dernier chapitre [2017 BDRip] bober100 Скачать
4 | 0
Фильмы 2013 [DVDrip, WEB-DLRip, HDrip] [ 1.46 GB ] Белль и Себастьян / Belle et Sébastien [2013 BDRip] killermax2013 Скачать
5 | 0
Фильмы [HD 720p, 1080p] (Хороший звук DUB, MVO) [ 7.75 GB ] Белль / Belle [2013 BDRip 1080p] MVO еnvy Скачать
1 | 0

28-11-2019 20:33  

Отключить всю рекламу на сайте

    Дорогой пользователь! Огромная просьба, поблагодарите релизера, оцените раздачу и оставьте свои комментарий, если Вы скачали Белль через торрент бесплатно! Внесите свою лепту в развитие PiratBit!
    Комментировать посты могут только пользователи прошедшие не сложную регистрацию
    Показать сообщения:    

    Белль через торрент
    Скачать бесплатно Белль
    Белль скачать торрент
    Белль смотреть онлайн
    Cкачать фильм Белль бесплатно
    Белль скачать торрент в хорошем качестве
    Белль смотреть онлайн бесплатно в хорошем качестве


    Вы не можете начинать темы
    Вы не можете отвечать на сообщения
    Вы не можете редактировать свои сообщения
    Вы не можете удалять свои сообщения
    Вы не можете голосовать в опросах
    Вы не можете прикреплять файлы к сообщениям
    Вы можете скачивать файлы