Ссылка на приватное зеркало нашего сайта всего за 1$. Внимание количество ограничено!!!

2 сезон

iTunes

1 сезон

1

iTunes

iTunes

iTunes

1 сезон

RePack

30

ИГРА 18+

pack

ВАЖНО

!!Акция!!

Alien_RageХит недели

RePack

MK11
pack

Забери бонус

RePack

jed

!!Акция!!

Alien_Rage

RePack

fifa19

RePack

Assassins Creed: Odyssey

RePack

NEED FOR SPEED™ PAYBACK

4 сезон

9 сезон

Бесстыжие 9 сезон

Все сериалы

все сериалы на PB.wtf

RePack

FAR CRY 5
  

Помутнение разума / Mindwarp (Стив Барнетт) [1990 г., ужасы, фантастика, триллер, BDRip 720p, Профессиональный многоголосый] pb.wtf

Помутнение разума через торрент pb.wtf

Размер: 9.07 GB | Добавлен: 6 лет назад | Торрент скачан:29 раз
Скачать  

18-10-2014 07:26 Помутнение разума Скачать торрент  

Помутнение разума / Mindwarp
Год выпуска: 1990
Страна: США
Жанр: ужасы, фантастика, триллер
Продолжительность: 01:35:48
Перевод: Профессиональный многоголосый
Субтитры: English

Режиссер: Стив Барнетт
Продюссер: Кристофер Уэбстер, Норман Джейкобс, Стивен Джейкобс
Сценарий: Джон Д. Бранкато, Майкл Феррис
Премьера в мире: 13 июля 1992

IMDB 5.20 (1276)


В ролях: Брюс Кэмпбелл, Энгус Скримм, Марта Мартин, Элизабет Кент, Мэри Бекер, Венди Сэндоу, Брайан Брилл, Бекки Вэллин, Мэтт Хенсли, Кит Роденбергер

Описание: Молодая девушка Джуди Эппл решает проявить характер. И поднимает свой личный маленький бунт, протестуя и против навязывания снов, которые диктует некий компьютерный источник ИНФИНИСИНТ, и против всего образа жизни, которая сводится к почти постоянному сну под контролем этого ИНФИНИСИНТА.Немедленно следует наказание: Джуди Эппл из подземного бункера-убежища-укрытия попадает на открытую земную поверхность и мгновенно сталкивается с кошмарными опасностями в лице монстрообразных человекоподобных существ, из лап которых ее спасает одинокий охотник Стоувер, оказавшийся вполне приличным, симпатичным, абсолютно нормальным молодым человеком. От него и узнает Джуди обо всем, что когда-то случилось на земле, а также о том, кто живет под землей.

Доп. информация: Сохранены оригинальные чаптеры как на Blu-ray.

Качество: BDRip 720p
Формат: MKV
Видео кодек: AVC
Аудио кодек: AC3 / DTS
Видео: AVC, 1280x694 (16:9), 23.976 fps, 10.1 Mbps (0.475 bit/pixel)
Аудио#1: Russian: 48 kHz, AC3, 2/0 (L,R) ch, ~192.00 kbps avg |Многоголосый закадровый, ТВ3|
Аудио#2: English: 48 kHz/24-bit, DTS, 2/0 (L,R) ch ~1509.00 kbps avg
Аудио#3: English: 48 kHz/24-bit, DTS, 2/0 (L,R) ch ~1509.00 kbps avg |isolated score|
General
Unique ID : 225772750509407517790753547560079266544 (0xA9DA400575199A019CAA04E8569B12F0)
Complete name : /home/sb1855/files/Mindwarp.1990.720p.BluRay.Rus.2xEng.HDCLUB.mkv
Format : Matroska
Format version : Version 2
File size : 9.07 GiB
Duration : 1h 35mn
Overall bit rate : 13.6 Mbps
Movie name : Mindwarp (1990) - Release for HDCLUB
Encoded date : UTC 2014-10-17 14:02:25
Writing application : mkvmerge v5.7.0 ('The Whirlwind') built on Jul 8 2012 20:08:51
Writing library : libebml v1.2.3 + libmatroska v1.3.0

Video
ID : 1
Format : AVC
Format/Info : Advanced Video Codec
Format profile : High@L4.1
Format settings, CABAC : Yes
Format settings, ReFrames : 9 frames
Codec ID : V_MPEG4/ISO/AVC
Duration : 1h 35mn
Bit rate : 10.1 Mbps
Width : 1 280 pixels
Height : 694 pixels
Display aspect ratio : 1.85:1
Frame rate : 23.976 fps
Color space : YUV
Chroma subsampling : 4:2:0
Bit depth : 8 bits
Scan type : Progressive
Bits/(Pixel*Frame) : 0.473
Stream size : 6.74 GiB (74%)
Writing library : x264 core 142 r2431+42 c69a006 tMod [8-bit@4:2:0 X86_64]
Encoding settings : cabac=1 / ref=9 / deblock=1:-3:-3 / analyse=0x3:0x133 / me=umh / subme=10 / psy=1 / fade_compensate=0.00 / psy_rd=1.00:0.00 / mixed_ref=1 / me_range=24 / chroma_me=1 / trellis=2 / 8x8dct=1 / cqm=0 / deadzone=21,11 / fast_pskip=1 / chroma_qp_offset=-2 / threads=12 / lookahead_threads=3 / sliced_threads=0 / nr=0 / decimate=1 / interlaced=0 / bluray_compat=0 / constrained_intra=0 / fgo=0 / bframes=11 / b_pyramid=2 / b_adapt=2 / b_bias=0 / direct=3 / weightb=1 / open_gop=0 / weightp=2 / keyint=250 / keyint_min=23 / scenecut=40 / intra_refresh=0 / rc_lookahead=60 / rc=crf / mbtree=0 / crf=17.5000 / qcomp=0.65 / qpmin=0:0:0 / qpmax=69:69:69 / qpstep=4 / vbv_maxrate=62500 / vbv_bufsize=78125 / crf_max=0.0 / nal_hrd=none / filler=0 / ip_ratio=1.30 / pb_ratio=1.20 / aq=4:0.85 / aq-sensitivity=10.00 / aq-factor=1.00:1.00:1.00 / aq2=0 / aq3=0
Language : English
Default : Yes
Forced : No
Matrix coefficients : BT.709-5, BT.1361, IEC 61966-2-4 709, SMPTE RP177

Audio #1
ID : 2
Format : AC-3
Format/Info : Audio Coding 3
Mode extension : CM (complete main)
Format settings, Endianness : Big
Codec ID : A_AC3
Duration : 1h 35mn
Bit rate mode : Constant
Bit rate : 192 Kbps
Channel(s) : 2 channels
Channel positions : Front: L R
Sampling rate : 48.0 KHz
Bit depth : 16 bits
Compression mode : Lossy
Stream size : 132 MiB (1%)
Title : |???????????? ??????????, ??3|
Language : Russian
Default : Yes
Forced : No

Audio #2
ID : 3
Format : DTS
Format/Info : Digital Theater Systems
Codec ID : A_DTS
Duration : 1h 35mn
Bit rate mode : Constant
Bit rate : 1 510 Kbps
Channel(s) : 2 channels
Channel positions : Front: L R
Sampling rate : 48.0 KHz
Bit depth : 24 bits
Compression mode : Lossy
Stream size : 1.01 GiB (11%)
Language : English
Default : No
Forced : No

Audio #3
ID : 4
Format : DTS
Format/Info : Digital Theater Systems
Codec ID : A_DTS
Duration : 1h 35mn
Bit rate mode : Constant
Bit rate : 1 510 Kbps
Channel(s) : 2 channels
Channel positions : Front: L R
Sampling rate : 48.0 KHz
Bit depth : 24 bits
Compression mode : Lossy
Stream size : 1.01 GiB (11%)
Title : |isolated score|
Language : English
Default : No
Forced : No

Text
ID : 5
Format : UTF-8
Codec ID : S_TEXT/UTF8
Codec ID/Info : UTF-8 Plain Text
Language : English
Default : No
Forced : No

Menu
00:00:00.000 : :00:00:00.000
00:05:02.051 : :00:05:02.051
00:14:56.604 : :00:14:56.604
00:23:55.642 : :00:23:55.642
00:32:22.357 : :00:32:22.357
00:41:56.013 : :00:41:56.013
00:51:48.563 : :00:51:48.563
00:57:16.766 : :00:57:16.766
01:04:17.562 : :01:04:17.562
01:14:22.416 : :01:14:22.416
01:25:58.945 : :01:25:58.945
01:32:46.102 : :01:32:46.102

pb.wtf



Скачать Помутнение разума через торрент http://i66.fastpic.ru/big/2014/1018/69/614ef6dd15dfb5ab8cb364109880cb69.png Скачать фильм Помутнение разума через торрент бесплантно в хорошем качестве Описание: Молодая девушка Джуди Эппл решает проявить характер. И поднимает свой личный маленький бунт, протестуя и против навязывания снов, ... 10 10 7
Торрент: Зарегистрирован [2014-10-18 07:26] · скачан: 29 раз
Статус: √ проверено
Размер: 9.07 GB
Как cкачать? Как скачать Помутнение разума через торрент | qTorrent

% Раздел Тема Автор DL S | L
Фильмы [HD 720p, 1080p] (Хороший звук DUB, MVO) [ 11.88 GB ] Помутнение разума / Mindwarp [1992 BDRip 1080p by msltel] MVO 2 x AVO msltel Скачать
1 | 0
Фильмы [HD 720p, 1080p] (Хороший звук DUB, MVO) [ 4.85 GB ] Помутнение разума / Mindwarp [1992 BDRip 720p by msltel] MVO 2 x AVO msltel Скачать
1 | 0

28-11-2019 20:33  

Отключить всю рекламу на сайте

18-10-2014 10:04 Помутнение разума Скачать торрент  

ну и как оно, кто смотрел ?pb.wtf



    Дорогой пользователь! Огромная просьба, поблагодарите релизера, оцените раздачу и оставьте свои комментарий, если Вы скачали Помутнение разума через торрент бесплатно! Внесите свою лепту в развитие PiratBit!
    Комментировать посты могут только пользователи прошедшие не сложную регистрацию
    Показать сообщения:    

    Помутнение разума через торрент
    Скачать бесплатно Помутнение разума
    Помутнение разума скачать торрент
    Помутнение разума смотреть онлайн
    Cкачать фильм Помутнение разума бесплатно
    Помутнение разума скачать торрент в хорошем качестве
    Помутнение разума смотреть онлайн бесплатно в хорошем качестве


    Вы не можете начинать темы
    Вы не можете отвечать на сообщения
    Вы не можете редактировать свои сообщения
    Вы не можете удалять свои сообщения
    Вы не можете голосовать в опросах
    Вы не можете прикреплять файлы к сообщениям
    Вы можете скачивать файлы