Ссылка на приватное зеркало нашего сайта всего за 1$. Внимание количество ограничено!!!

2 сезон

iTunes

1 сезон

1

iTunes

iTunes

iTunes

1 сезон

RePack

30

ИГРА 18+

pack

ВАЖНО

!!Акция!!

Alien_RageХит недели

RePack

MK11
pack

Забери бонус

RePack

jed

!!Акция!!

Alien_Rage

RePack

fifa19

RePack

Assassins Creed: Odyssey

RePack

NEED FOR SPEED™ PAYBACK

4 сезон

9 сезон

Бесстыжие 9 сезон

Все сериалы

все сериалы на PB.wtf

RePack

FAR CRY 5
  

Оттепель / The Thaw (Марк А. Льюис) [2009 г., ужасы, фантастика, триллер, BDRip 720p, MVO, DVO] pb.wtf

Оттепель через торрент pb.wtf

Размер: 6.62 GB | Добавлен: 6 лет назад | Торрент скачан:81 раз
Скачать  

18-10-2014 15:35 Оттепель Скачать торрент  

Оттепель / The Thaw
Год выпуска: 2009
Страна: США, Канада
Жанр: ужасы, фантастика, триллер
Продолжительность: 01:33:57
Перевод: Профессиональный многоголосый, Двухголосый закадровый
Субтитры: Russian, Czech, English, Greek, Portuguese, Romanian

Режиссер: Марк А. Льюис
Продюссер: Трентон Карлсон, Роб Нилсон, Мэри Энн Уотерхаус
Сценарий: Марк А. Льюис, Майкл Льюис
Премьера в мире: 30 августа 2009

IMDB 5.30 (7943)


В ролях: Вэл Килмер, Али Стейссон, Брэд Драйборо, Грег Роджерс, Уильям Б. Дэвис, Гари Чок, Питер Келамис, Бренда Кричлоу, Энн Мари ДеЛуис, Джон Кэлландер

Описание: Действие происходит в Арктике. В центре сюжета — группа исследователей, подвергшаяся нападению паразита-убийцы, вырвавшегося на свободу вследствие таяния арктических льдов.

Доп. информация: Сохранены оригинальные чаптеры как на Blu-ray.

Качество: BDRip 720p
Формат: MKV
Видео кодек: AVC
Аудио кодек: AC3
Видео: AVC, 1280x534 (2.35:1), 24.000 fps, 7 717 Kbps (0.474 bit/pixel)
Аудио#1: Russian: 48 kHz, AC3, 3/2 (L,C,R,l,r) + LFE ch, ~448.00 kbps avg |Многоголосый закадровый, R5|
Аудио#2: Ukrainian: 48 kHz, AC3, 2/0 (L,R) ch, ~192.00 kbps avg |Двухголосый закадровый, 1+1|
Аудио#3: English: 48 kHz/24-bit, DTS, 3/2 (L,C,R,l,r) + LFE ch, ~1509.00 kbps avg
General
Unique ID : 233704240283515155425041058827424617550 (0xAFD1CCA8B466084A896E97E3426DD44E)
Complete name : /home/sb753/files/The.Thaw.2009.720p.BluRay.Rus.Ukr.Eng.HDCLUB.mkv
Format : Matroska
Format version : Version 2
File size : 6.62 GiB
Duration : 1h 34mn
Overall bit rate : 10.1 Mbps
Movie name : The Thaw (2009) - Release for HDCLUB
Encoded date : UTC 2014-10-18 11:57:38
Writing application : mkvmerge v5.7.0 ('The Whirlwind') built on Jul 8 2012 20:08:51
Writing library : libebml v1.2.3 + libmatroska v1.3.0

Video
ID : 1
Format : AVC
Format/Info : Advanced Video Codec
Format profile : High@L4.1
Format settings, CABAC : Yes
Format settings, ReFrames : 12 frames
Codec ID : V_MPEG4/ISO/AVC
Duration : 1h 34mn
Bit rate : 7 717 Kbps
Width : 1 280 pixels
Height : 534 pixels
Display aspect ratio : 2.40:1
Frame rate : 24.000 fps
Color space : YUV
Chroma subsampling : 4:2:0
Bit depth : 8 bits
Scan type : Progressive
Bits/(Pixel*Frame) : 0.470
Stream size : 5.08 GiB (77%)
Writing library : x264 core 142 r2431+42 c69a006 tMod [8-bit@4:2:0 X86_64]
Encoding settings : cabac=1 / ref=12 / deblock=1:-3:-3 / analyse=0x3:0x133 / me=umh / subme=10 / psy=1 / fade_compensate=0.00 / psy_rd=1.00:0.00 / mixed_ref=1 / me_range=24 / chroma_me=1 / trellis=2 / 8x8dct=1 / cqm=0 / deadzone=21,11 / fast_pskip=1 / chroma_qp_offset=-2 / threads=12 / lookahead_threads=2 / sliced_threads=0 / nr=0 / decimate=1 / interlaced=0 / bluray_compat=0 / constrained_intra=0 / fgo=0 / bframes=7 / b_pyramid=2 / b_adapt=2 / b_bias=0 / direct=3 / weightb=1 / open_gop=0 / weightp=2 / keyint=250 / keyint_min=24 / scenecut=40 / intra_refresh=0 / rc_lookahead=60 / rc=crf / mbtree=0 / crf=16.5000 / qcomp=0.65 / qpmin=0:0:0 / qpmax=69:69:69 / qpstep=4 / vbv_maxrate=62500 / vbv_bufsize=78125 / crf_max=0.0 / nal_hrd=none / filler=0 / ip_ratio=1.30 / pb_ratio=1.20 / aq=4:0.85 / aq-sensitivity=10.00 / aq-factor=1.00:1.00:1.00 / aq2=0 / aq3=0
Language : English
Default : Yes
Forced : No
Matrix coefficients : BT.709-5, BT.1361, IEC 61966-2-4 709, SMPTE RP177

Audio #1
ID : 2
Format : AC-3
Format/Info : Audio Coding 3
Mode extension : CM (complete main)
Format settings, Endianness : Big
Codec ID : A_AC3
Duration : 1h 34mn
Bit rate mode : Constant
Bit rate : 448 Kbps
Channel(s) : 6 channels
Channel positions : Front: L C R, Side: L R, LFE
Sampling rate : 48.0 KHz
Bit depth : 16 bits
Compression mode : Lossy
Stream size : 302 MiB (4%)
Title : |???????????? ??????????, R5|
Language : Russian
Default : Yes
Forced : No

Audio #2
ID : 3
Format : AC-3
Format/Info : Audio Coding 3
Mode extension : CM (complete main)
Format settings, Endianness : Big
Codec ID : A_AC3
Duration : 1h 34mn
Bit rate mode : Constant
Bit rate : 192 Kbps
Channel(s) : 2 channels
Channel positions : Front: L R
Sampling rate : 48.0 KHz
Bit depth : 16 bits
Compression mode : Lossy
Stream size : 129 MiB (2%)
Title : |??????????? ??????????, 1+1|
Language : Ukrainian
Default : No
Forced : No

Audio #3
ID : 4
Format : DTS
Format/Info : Digital Theater Systems
Codec ID : A_DTS
Duration : 1h 34mn
Bit rate mode : Constant
Bit rate : 1 510 Kbps
Channel(s) : 6 channels
Channel positions : Front: L C R, Side: L R, LFE
Sampling rate : 48.0 KHz
Bit depth : 24 bits
Compression mode : Lossy
Stream size : 1 017 MiB (15%)
Language : English
Default : No
Forced : No

Text #1
ID : 5
Format : UTF-8
Codec ID : S_TEXT/UTF8
Codec ID/Info : UTF-8 Plain Text
Language : Czech
Default : No
Forced : No

Text #2
ID : 6
Format : UTF-8
Codec ID : S_TEXT/UTF8
Codec ID/Info : UTF-8 Plain Text
Language : English
Default : No
Forced : No

Text #3
ID : 7
Format : UTF-8
Codec ID : S_TEXT/UTF8
Codec ID/Info : UTF-8 Plain Text
Language : Greek
Default : No
Forced : No

Text #4
ID : 8
Format : UTF-8
Codec ID : S_TEXT/UTF8
Codec ID/Info : UTF-8 Plain Text
Language : Portuguese
Default : No
Forced : No

Text #5
ID : 9
Format : UTF-8
Codec ID : S_TEXT/UTF8
Codec ID/Info : UTF-8 Plain Text
Language : Romanian
Default : No
Forced : No

Menu
00:00:00.000 : :00:00:00.000
00:14:35.625 : :00:14:35.625
00:28:32.500 : :00:28:32.500
00:37:12.875 : :00:37:12.875
00:47:57.875 : :00:47:57.875
00:57:44.208 : :00:57:44.208
01:07:34.458 : :01:07:34.458
01:23:45.250 : :01:23:45.250

pb.wtf



Скачать Оттепель через торрент http://i64.fastpic.ru/big/2014/1018/50/2ecc3c1606858df85b51a63e1d18b650.png Скачать фильм Оттепель через торрент бесплантно в хорошем качестве Описание: Действие происходит в Арктике. В центре сюжета — группа исследователей, подвергшаяся нападению паразита-убийцы, вырвавшегося на ... 10 10 9
Торрент: Зарегистрирован [2014-10-18 15:35] · скачан: 81 раз
Статус: √ проверено
Размер: 6.62 GB
Как cкачать? Как скачать Оттепель через торрент | qTorrent

% Раздел Тема Автор DL S | L
Фильмы 2009 [ 1.21 GB ] Оттепель / The Thaw [2009 DVDRip] DEVI Скачать
1 | 0
Фильмы 2009 [ 1.45 GB ] Оттепель / The Thaw [2009 BDRip MVO] VintMosina Скачать
1 | 0
Фильмы (DVD фильмы) [ 4.14 GB ] Оттепель / Thaw The [2009 ... DVD5] Timberwolf Скачать
1 | 0

28-11-2019 20:33  

Отключить всю рекламу на сайте

    Дорогой пользователь! Огромная просьба, поблагодарите релизера, оцените раздачу и оставьте свои комментарий, если Вы скачали Оттепель через торрент бесплатно! Внесите свою лепту в развитие PiratBit!
    Комментировать посты могут только пользователи прошедшие не сложную регистрацию
    Показать сообщения:    

    Оттепель через торрент
    Скачать бесплатно Оттепель
    Оттепель скачать торрент
    Оттепель смотреть онлайн
    Cкачать фильм Оттепель бесплатно
    Оттепель скачать торрент в хорошем качестве
    Оттепель смотреть онлайн бесплатно в хорошем качестве


    Вы не можете начинать темы
    Вы не можете отвечать на сообщения
    Вы не можете редактировать свои сообщения
    Вы не можете удалять свои сообщения
    Вы не можете голосовать в опросах
    Вы не можете прикреплять файлы к сообщениям
    Вы можете скачивать файлы