Ссылка на приватное зеркало нашего сайта всего за 1$. Внимание количество ограничено!!!

2 сезон

iTunes

1 сезон

1

iTunes

iTunes

iTunes

1 сезон

RePack

30

ИГРА 18+

pack

ВАЖНО

!!Акция!!

Alien_RageХит недели

RePack

MK11
pack

Забери бонус

RePack

jed

!!Акция!!

Alien_Rage

RePack

fifa19

RePack

Assassins Creed: Odyssey

RePack

NEED FOR SPEED™ PAYBACK

4 сезон

9 сезон

Бесстыжие 9 сезон

Все сериалы

все сериалы на PB.wtf

RePack

FAR CRY 5
  

Они пришли вместе / They Came Together (Дэвид Уэйн / David Wain) [2014, США, комедия, WEB-DLRip, Любительский (одноголосый)] pb.wtf

Они пришли вместе через торрент pb.wtf

Размер: 1.72 GB | Добавлен: 6 лет назад | Торрент скачан:130 раз
Скачать  

19-10-2014 00:10 Они пришли вместе Скачать торрент  

Они пришли вместе / They Came Together«He came...She came...They both came»
Год выпуска: 2014
Страна: США
Жанр: комедия
Продолжительность: 01:23:20
Перевод: Любительский (одноголосый)
Субтитры: Английские
Режиссер: Дэвид Уэйн / David Wain
В ролях:


Пол Радд (Joel), Эми Полер (Molly), Коби Смолдерс (Tiffany), Кристофер Мелони (Roland), Макс Гринфилд (Jake), Билл Хейдер (Kyle), Элли Кемпер (Karen), Джейсон Манцукас (Bob), Мелани Лински (Brenda), Эд Хелмс (Eggbert), Майкл Йен Блэк (Trevor), Майкл Мерфи (Roger)

Описание:
Когда Джоэл и Молли встречаются в первый раз, между ними нет ничего, кроме ненависти: крупная компания Джоэла, мегасеть кондитерских, угрожает закрыть ее маленький симпатичный кондитерский магазинчик. Преодолевая причудливые ситуации, невыносимых членов семьи и таких же бывших любовников, Джоэл и Молли столкнутся с весьма серьезными препятствиями на пути к их истинной любви.

Рейтинг:

MPAA: R - Лицам до 17 лет обязательно присутствие взрослого
Качество: WEB-DLRip
Формат: AVI
Видео кодек:XviD
Аудио кодек:AC3
Видео: XviD, 720x400 (16:9), 2106 kbps, 23,976 fps, 0,305 bpp
Аудио №1: AC3 / 5.1 / 48 kHz / 448 kbps / 16 bit - Любительский (одноголосый) [Pashaup]
Аудио №2: AC3 / 5.1 / 48 kHz / 384 kbps / 16 bit - (оригинал)


General
Complete name : D:\Users\_KaisiK_\uTorrent\КИНО\Oni_prishli_vmeste_2014\Oni_prishli_vmeste_2014.avi
Format : AVI
Format/Info : Audio Video Interleave
File size : 1.72 GiB
Duration : 1h 23mn
Overall bit rate : 2 953 Kbps
Writing application : VirtualDubMod 1.5.10.2 (build 2540/release)
Writing library : VirtualDubMod build 2540/release

Video
ID : 0
Format : MPEG-4 Visual
Format profile : Advanced Simple@L5
Format settings, BVOP : 1
Format settings, QPel : No
Format settings, GMC : No warppoints
Format settings, Matrix : Custom
Codec ID : XVID
Codec ID/Hint : XviD
Duration : 1h 23mn
Bit rate : 2 107 Kbps
Width : 720 pixels
Height : 400 pixels
Display aspect ratio : 16:9
Frame rate : 23.976 fps
Color space : YUV
Chroma subsampling : 4:2:0
Bit depth : 8 bits
Scan type : Progressive
Compression mode : Lossy
Bits/(Pixel*Frame) : 0.305
Stream size : 1.23 GiB (71%)
Writing library : XviD 73

Audio #1
ID : 1
Format : AC-3
Format/Info : Audio Coding 3
Mode extension : CM (complete main)
Codec ID : 2000
Duration : 1h 23mn
Bit rate mode : Constant
Bit rate : 448 Kbps
Channel(s) : 6 channels
Channel positions : Front: L C R, Side: L R, LFE
Sampling rate : 48.0 KHz
Bit depth : 16 bits
Compression mode : Lossy
Stream size : 267 MiB (15%)
Alignment : Split accross interleaves
Interleave, duration : 42 ms (1.00 video frame)
Interleave, preload duration : 500 ms

Audio #2
ID : 2
Format : AC-3
Format/Info : Audio Coding 3
Mode extension : CM (complete main)
Codec ID : 2000
Duration : 1h 23mn
Bit rate mode : Constant
Bit rate : 384 Kbps
Channel(s) : 6 channels
Channel positions : Front: L C R, Side: L R, LFE
Sampling rate : 48.0 KHz
Bit depth : 16 bits
Compression mode : Lossy
Stream size : 229 MiB (13%)
Alignment : Split accross interleaves
Interleave, duration : 42 ms (1.00 video frame)
Interleave, preload duration : 500 ms

[/code]
pb.wtf



Скачать Они пришли вместе через торрент http://i66.fastpic.ru/big/2014/1019/5f/02d70fc6bafe16de7b01a5482b9f6c5f.jpg Скачать фильм Они пришли вместе через торрент бесплантно в хорошем качестве Описание: Когда Джоэл и Молли встречаются в первый раз, между ними нет ничего, кроме ненависти: крупная компания Джоэла, мегасеть ... 10 10 5
Торрент: Зарегистрирован [2014-10-19 00:10] · скачан: 130 раз
Статус: √ проверено
Размер: 1.72 GB
Как cкачать? Как скачать Они пришли вместе через торрент | qTorrent

28-11-2019 20:33  

Отключить всю рекламу на сайте

    Дорогой пользователь! Огромная просьба, поблагодарите релизера, оцените раздачу и оставьте свои комментарий, если Вы скачали Они пришли вместе через торрент бесплатно! Внесите свою лепту в развитие PiratBit!
    Комментировать посты могут только пользователи прошедшие не сложную регистрацию
    Показать сообщения:    

    Они пришли вместе через торрент
    Скачать бесплатно Они пришли вместе
    Они пришли вместе скачать торрент
    Они пришли вместе смотреть онлайн
    Cкачать фильм Они пришли вместе бесплатно
    Они пришли вместе скачать торрент в хорошем качестве
    Они пришли вместе смотреть онлайн бесплатно в хорошем качестве


    Вы не можете начинать темы
    Вы не можете отвечать на сообщения
    Вы не можете редактировать свои сообщения
    Вы не можете удалять свои сообщения
    Вы не можете голосовать в опросах
    Вы не можете прикреплять файлы к сообщениям
    Вы можете скачивать файлы